<?xml version="1.0" standalone="no"?>
<!DOCTYPE svg PUBLIC "-//W3C//DTD SVG 1.1//EN" "http://www.w3.org/Graphics/SVG/1.1/DTD/svg11.dtd" >
<svg xmlns="http://www.w3.org/2000/svg">
  <metadata>Created by iconfont</metadata>
  <defs>
  <font id="layui-icon" horiz-adv-x="1024">
    <font-face
      font-family="layui-icon"
      font-weight="400"
      font-stretch="normal"
      units-per-em="1024"
      ascent="896"
      descent="-128"
    />
      <missing-glyph />
      
      <glyph glyph-name="github" unicode="&#59047;" d="M512 852.11428587c258.43809493 0 468.11428587-209.67619093 468.11428587-468.11428587 0-206.63344747-134.07573333-382.17630507-319.99512427-444.35748587-23.7568-4.2520384-32.29988587 10.37653333-32.29988587 22.54750507 0 15.25272427 0.62415253 65.80906667 0.62415254 128.6144 0 43.88571413-14.62857173 71.9335616-31.67573334 86.56213333 104.23344747 11.58582827 213.92822827 51.21950507 213.92822934 231.0144 0 51.21950507-18.29546667 92.6476192-48.13775254 125.57165654 4.87619093 12.2099808 20.7140576 59.7235808-4.87619093 124.32335253-39.00952427 12.2099808-128.6144-48.13775253-128.6144-48.13775253a440.02742827 440.02742827 0 0 1-234.0571424 0S305.4055616 670.4859424 266.3960384 658.2759616c-25.59024747-64.59977173-9.7523808-112.1523808-4.87619093-124.32335253-29.88129493-32.9240384-48.13775253-74.35215253-48.13775254-125.57165654 0-179.20975253 109.1096384-219.42857173 213.34308587-231.0144-13.41927573-12.2099808-25.59024747-32.9240384-29.88129493-62.76632426-26.83855253-12.2099808-95.1052192-32.9240384-135.9091808 39.00952426-25.59024747 44.50986667-71.9335616 48.13775253-71.93356267 48.13775254-45.7191616 0.62415253-3.0427424-28.63299093-3.0427424-28.63299094 30.4664384-14.0044192 51.80464747-68.26666667 51.80464747-68.26666666 27.42369493-83.51939093 157.8715424-55.4715424 157.87154346-55.4715424 0-39.00952427 0.62415253-75.56144747 0.62415147-87.1472768 0-12.2099808-8.54308587-26.83855253-32.2998848-22.547504C178.03946667 1.8627050699999472 43.96373333 177.40556160000006 43.96373333 384.03900907c0 258.43809493 209.67619093 468.11428587 468.11428587 468.11428586zM221.2620192 179.82415253c1.20929493 2.4576-0.62415253 5.5003424-4.2520384 7.2947808-3.66689493 1.20929493-6.7096384 0.62415253-7.91893333-1.20929493-1.20929493-2.4576 0.62415253-5.5003424 4.2520384-7.2947808 3.0427424-1.83344747 6.7096384-1.20929493 7.91893333 1.20929493z m18.88060907-20.75306666c2.4576 1.83344747 1.83344747 6.08548587-1.20929494 9.7523808-3.0427424 3.0427424-7.2947808 4.2520384-9.7523808 1.83344746-2.4576-1.83344747-1.83344747-6.08548587 1.20929494-9.7523808 3.0427424-3.0427424 7.2947808-4.2520384 9.7523808-1.83344746z m18.29546666-27.42369494c3.0427424 2.4576 3.0427424 7.2947808 0 11.58582827-2.4576 4.2520384-7.2947808 6.08548587-10.37653333 3.66689493-3.0427424-1.83344747-3.0427424-6.7096384 0-10.96167573s7.91893333-6.08548587 10.37653333-4.2520384z m25.59024747-25.59024853c2.4576 2.4576 1.20929493 7.91893333-2.4576 11.58582933-4.2520384 4.2520384-9.7523808 4.87619093-12.2099808 1.83344747-3.0427424-2.4576-1.83344747-7.91893333 2.4576-11.58582827 4.2520384-4.2520384 9.7523808-4.87619093 12.2099808-1.83344853z m34.75748587-15.2527232c1.20929493 3.66689493-2.4576 7.91893333-7.91893334 9.7523808-4.87619093 1.20929493-10.37653333-0.62415253-11.58582826-4.2520384s2.4576-7.91893333 7.91893333-9.12822827c4.87619093-1.83344747 10.37653333 0 11.58582827 3.66689494z m38.38537173-3.04274347c0 4.2520384-4.87619093 7.2947808-10.37653333 6.7096384-5.5003424 0-9.7523808-3.0427424-9.7523808-6.7096384 0-4.2520384 4.2520384-7.2947808 10.37653333-6.70963733 5.5003424 0 9.7523808 3.0427424 9.7523808 6.70963733z m35.34262827 6.08548587c-0.62415253 3.66689493-5.5003424 6.08548587-10.96167574 5.50034347-5.5003424-1.20929493-9.12822827-4.87619093-8.54308586-9.12822934 0.62415253-3.66689493 5.5003424-6.08548587 10.96167573-4.87618986s9.12822827 4.87619093 8.54308587 8.54308586z"  horiz-adv-x="1024" />
      
      <glyph glyph-name="disabled" unicode="&#59084;" d="M509.20496914 834c-245.9627332 0-447.20496914-201.24223594-447.20496914-447.20496914s201.24223594-447.20496914 447.20496914-447.20496914 447.20496914 201.24223594 447.20496914 447.20496914-201.24223594 447.20496914-447.20496914 447.20496914zM509.20496914-10.09937930000001C291.19254628-10.09937930000001 112.31055898 168.78260888 112.31055898 386.79503086c0 95.03105625 33.54037295 184.4720499 95.03105625 257.14285752l553.41614883-553.41614883C693.67701904 23.440993649999996 604.23602451-10.09937930000001 509.20496914-10.09937930000001z m296.27329131 134.16149092l-559.00621055 553.41614883C319.14285752 738.96894375 408.58385117 778.0993793 509.20496914 778.0993793c218.01242197 0 396.89441016-178.8819873 396.89441016-396.89441016 0-95.03105625-39.13043467-190.06211162-100.62111885-257.14285752z"  horiz-adv-x="1024" />
      
      <glyph glyph-name="moon" unicode="&#59074;" d="M696.832 680.448c98.816-62.976 162.304-173.056 162.304-294.912 0-192.512-156.672-349.184-349.184-349.184-121.856 0-232.448 63.488-294.912 162.816h5.12c263.168 0 477.184 214.016 477.184 477.184-0.512 1.536-0.512 3.072-0.512 4.096m-78.336 103.936c9.216-34.304 14.336-70.656 14.336-108.032 0-228.352-184.832-413.184-413.184-413.184-37.376 0-73.728 5.12-108.544 14.336 47.616-175.616 207.872-305.152 398.848-305.152 228.352 0 413.184 184.832 413.184 413.184 0 190.976-129.024 351.232-304.64 398.848z"  horiz-adv-x="1024" />
      
      <glyph glyph-name="error" unicode="&#59027;" d="M512-60.09287109000002c-245.26845703 0-444.09550781 198.82880859-444.09550781 444.09550781s198.82705078 444.09287109 444.09550781 444.09287109c245.26669922 0 444.09550781-198.82880859 444.09550781-444.09550781s-198.82880859-444.09287109-444.09550781-444.09287109zM512 772.58378906c-214.60166016 0-388.58378906-173.97861328-388.58378906-388.58378906s173.98125-388.58115234 388.58378906-388.58115234c214.60166016 0 388.58115234 173.97861328 388.58115234 388.58115234s-173.97861328 388.58378906-388.58115234 388.58378906zM551.41103516 383.85585937999997l117.60029297-117.62138672c10.84306641-10.82460938 10.84306641-28.40625 0-39.24580079-10.83955078-10.84306641-28.42119141-10.84306641-39.24580079 0l-117.62138671 117.60029297-118.39570313-118.39570312c-10.93271484-10.93095703-28.64091797-10.93095703-39.55517578 0-10.93271484 10.93095703-10.93271484 28.64091797 0 39.55693359l118.39570312 118.41240235-117.60292968 117.60292968c-10.84130859 10.84130859-10.84130859 28.40625 0 39.24931641 10.84306641 10.83955078 28.40625 10.83955078 39.2493164 0l117.60292969-117.60292969 119.28164063 119.28164063c10.93095703 10.91513672 28.64091797 10.91513672 39.55693359 0 10.93095703-10.93095703 10.93095703-28.64091797 0-39.57363281l-119.26757813-119.26582032z"  horiz-adv-x="1024" />
      
      <glyph glyph-name="success" unicode="&#59031;" d="M661.31818174 521.04545479c10.22727305 12.27272695 30.68181826 14.31818174 42.95454521 4.09090868 12.27272695-10.22727305 14.31818174-30.68181826 4.09090957-42.95454521l-204.54545478-243.40909131c-10.22727305-12.27272695-30.68181826-14.31818174-42.95454522-4.09090869L327.90909131 345.13636347c-12.27272695 10.22727305-14.31818174 30.68181826-4.09090957 42.95454522 10.22727305 12.27272695 30.68181826 14.31818174 42.95454521 4.09090957l110.4545461-92.04545478 184.09090869 220.90909131zM512-66C262.45454521-66 62 134.45454521 62 384S262.45454521 834 512 834s450-200.45454521 450-450-200.45454521-450-450-450z m0 40.90909131c225 0 409.09090869 184.09090869 409.09090869 409.09090869S737 793.09090869 512 793.09090869 102.90909131 609 102.90909131 384s184.09090869-409.09090869 409.09090869-409.09090869z"  horiz-adv-x="1024" />
      
      <glyph glyph-name="question" unicode="&#59033;" d="M468.125 159a37.50000029 37.50000029 0 1 1 37.50000029 37.50000029 37.50000029 37.50000029 0 0 1-37.50000029-37.50000029z m37.50000029 92.62500029h-3.00000058a31.5 31.5 0 0 0-28.49999942 34.49999971A203.24999971 203.24999971 0 0 0 549.50000029 400.12500029c56.62500029 56.62500029 57.75000029 74.99999971 58.5 93.74999942a81.37500029 81.37500029 0 0 1-23.25000058 60.75A98.62499971 98.62499971 0 0 1 512 584.99999971a94.5 94.5 0 0 1-94.5-94.5 31.5 31.5 0 1 0-63.37500029 0A157.5 157.5 0 0 0 512 646.50000029a162.37500029 162.37500029 0 0 0 117.74999971-50.25000058 144.37500029 144.37500029 0 0 0 39.75000029-105.75c-2.25-40.87500029-14.625-72.74999971-77.24999971-135-31.5-31.5-51.75-55.50000029-53.62500058-74.99999971a31.5 31.5 0 0 0-31.12499971-29.99999971z m277.875-139.87500029A386.62499971 386.62499971 0 1 0 361.99999971 740.24999971a386.62499971 386.62499971 0 0 0 423.37500029-629.62499971zM512 834a450 450 0 1 1 450-450A450 450 0 0 1 512 834z"  horiz-adv-x="1024" />
      
      <glyph glyph-name="lock" unicode="&#59034;" d="M512-66A450 450 0 1 0 962 384 450.39130401 450.39130401 0 0 0 512-66z m0 860.86956533A410.86956533 410.86956533 0 1 1 922.86956533 384 411.26086934 411.26086934 0 0 1 512 794.86956533zM665.78260888 398.86956533h-14.47826132v78.26086934a139.69565244 139.69565244 0 0 1-279-7.82608711v-70.04347823h-11.73912979a19.95652177 19.95652177 0 0 1-19.95652178-20.34782577v-199.56521778a19.95652177 19.95652177 0 0 1 19.95652178-20.34782578h302.86956445a19.95652177 19.95652177 0 0 1 19.95652179 20.34782578v199.56521778a20.73913067 20.73913067 0 0 1-17.60869513 19.95652177z m-254.34782665 70.43478223a100.56521777 100.56521777 0 0 0 200.73913066 4.69565244v-74.73913067H411.43478223z"  horiz-adv-x="1024" />
      
      <glyph glyph-name="eye" unicode="&#59029;" d="M513.92 449.493333a64 64 0 1 0-64-64 64 64 0 0 0 64 64m0 64a128 128 0 1 1 128-128 128 128 0 0 1-128 128zM512 606.2933330000001c128 0 257.706667-67.84 397.226667-207.146666a21.333333 21.333333 0 0 0 0-30.08C770.133333 229.54666699999996 640 161.70666700000004 512 161.70666700000004s-257.28 67.84-396.8 207.146666a21.333333 21.333333 0 0 0 0 30.08c139.52 139.52 268.8 207.36 396.8 207.36m0 64c-145.92 0-291.84-75.306667-442.453333-225.92a85.333333 85.333333 0 0 1 0-120.746666C220.586667 173.013333 366.506667 97.70666700000004 512 97.70666700000004s292.266667 75.306667 442.666667 225.92a85.333333 85.333333 0 0 1 0 120.746666C804.266667 594.986667 658.346667 670.293333 512 670.293333z"  horiz-adv-x="1024" />
      
      <glyph glyph-name="eye-invisible" unicode="&#59030;" d="M386.346667 391.466667l121.813333 121.813333a128 128 0 0 1-121.813333-121.813333z m238.72 57.6L576 400.213333a64 64 0 0 0-76.8-76.8l-48.853333-48.853333a128 128 0 0 1 174.506666 174.506667zM109.013333 384a21.333333 21.333333 0 0 0 6.186667 15.146667c139.52 139.306667 268.8 207.146667 396.8 207.146666a372.266667 372.266667 0 0 0 79.786667-8.96l52.266666 52.266667a443.52 443.52 0 0 1-132.053333 21.333333c-145.92 0-291.84-75.306667-442.453333-225.92a85.333333 85.333333 0 0 1 0-120.746666 1063.04 1063.04 0 0 1 134.186666-115.2l45.866667 45.866666a985.813333 985.813333 0 0 0-134.4 114.133334 21.333333 21.333333 0 0 0-6.186667 14.933333z m845.653334 60.373333a966.613333 966.613333 0 0 1-185.813334 149.333334l-46.72-46.72a877.653333 877.653333 0 0 0 187.306667-147.2 21.333333 21.333333 0 0 0 0-30.08C770.133333 229.54666699999996 640 161.70666700000004 512 161.70666700000004a393.386667 393.386667 0 0 0-145.706667 29.013333l-48.64-48.64A466.133333 466.133333 0 0 1 512 97.70666700000004c145.92 0 291.84 75.306667 442.453333 225.92a85.333333 85.333333 0 0 1 0.213334 120.746666zM777.267604 692.049287m22.627417-22.627417l0 0q22.627417-22.627417 0-45.254834l-527.973064-527.973063q-22.627417-22.627417-45.254834 0l0 0q-22.627417 22.627417 0 45.254834l527.973064 527.973063q22.627417 22.627417 45.254834 0Z"  horiz-adv-x="1024" />
      
      <glyph glyph-name="backspace" unicode="&#59028;" d="M484.46100645 268.09861505000003a28.76779355 28.76779355 0 0 0-20.34016344 49.107957l174.2671828 174.27268816a28.76779355 28.76779355 0 0 0 40.68473118-40.68032687l-174.2671828-174.27819355a28.6940215 28.6940215 0 0 0-20.34456774-8.42322581zM658.72708818 268.09861505000003a28.68301076 28.68301076 0 0 0-20.34016345 8.42322581l-174.26718279 174.27709248a28.76228818 28.76228818 0 0 0 0 40.68032687 28.75127742 28.75127742 0 0 0 40.68142795 0l174.2671828-174.27268816a28.77990537 28.77990537 0 0 0-20.34126451-49.107957zM834.5379785 74.81145805999995H340.57028818c-28.46940215 0-55.25305806 12.53684301-73.49016775 34.39428818L75.75838279 339.01887310999996c-10.54830108 13.06205592-16.20232258 28.91974194-16.1968172 44.98663226 0.00660645 15.39083011 4.67406452 29.85015053 13.50248602 41.81333334 0.33803011 0.45694624 0.68266666 0.90288172 1.04822366 1.33009892L266.70685592 658.36593548a95.32449032 95.32449032 0 0 0 73.86233118 34.82921291H834.5379785c51.98286452 0 94.27516559-42.28789677 94.27516558-94.27076129v-429.83776344c0-51.98286452-42.29230108-94.27516559-94.27516558-94.2751656zM119.01522581 391.16579785c-0.90728602-1.35872689-1.91587097-3.52344086-1.91587097-7.17680861 0-2.92005161 1.14952258-6.01517419 3.15568172-8.50140214l191.02114409-229.45307528a38.55965592 38.55965592 0 0 1 29.29300645-13.69297203H834.5379785a36.78472258 36.78472258 0 0 1 36.74508387 36.74508387v429.83776344a36.78472258 36.78472258 0 0 1-36.74508387 36.73957849H340.5691871a38.60590108 38.60590108 0 0 1-29.53524302-13.96934193L119.01522581 391.16579785z"  horiz-adv-x="1024" />
      
      <glyph glyph-name="tips-fill" unicode="&#60206;" d="M512 832C264.6 832 64 631.4 64 384s200.6-448 448-448 448 200.6 448 448S759.4 832 512 832z m-32-232c0 4.4 3.6 8 8 8h48c4.4 0 8-3.6 8-8v-272c0-4.4-3.6-8-8-8h-48c-4.4 0-8 3.6-8 8V600z m32-440c-26.5 0-48 21.5-48 48s21.5 48 48 48 48-21.5 48-48-21.5-48-48-48z"  horiz-adv-x="1024" />
      
      <glyph glyph-name="test" unicode="&#59026;" d="M513.058-31.072000000000003c-56.004 0-110.35 10.976-161.528 32.622-49.416 20.901-93.789 50.816-131.887 88.914-38.098 38.099-68.013 82.472-88.915 131.888-21.646 51.178-32.622 105.524-32.622 161.528s10.976 110.35 32.622 161.528c20.901 49.416 50.816 93.789 88.915 131.887s82.471 68.013 131.887 88.915c51.178 21.646 105.524 32.622 161.528 32.622 64.817 0 126.912-14.538 184.56-43.209 54.937-27.323 104.055-67.35 142.042-115.754 10.911-13.903 8.486-34.019-5.417-44.93-13.903-10.91-34.018-8.485-44.929 5.417-67.071 85.461-167.763 134.476-276.256 134.476-193.516 0-350.952-157.436-350.952-350.952s157.436-350.952 350.952-350.952c200.075 0 350.952 141.419 350.952 328.952 0 17.673 14.327 32 32 32s32-14.327 32-32c0-109.988-43.501-210.61-122.49-283.33-76.785-70.692-180.65-109.622-292.462-109.622zM636.555 275.40700000000004c-5.39 0-10.85 1.362-15.862 4.23-15.34 8.776-20.66 28.327-11.884 43.667L781.3 624.79c8.776 15.341 28.33 20.661 43.667 11.884 15.34-8.777 20.66-28.327 11.884-43.667L664.359 291.52099999999996c-5.908-10.327-16.703-16.114-27.804-16.114zM628.023 263.38199999999995a31.856 31.856 0 0 0-19.204 6.424L403.383 424.242c-14.127 10.62-16.97 30.681-6.35 44.807 10.62 14.127 30.68 16.97 44.807 6.35l205.437-154.438c14.127-10.619 16.97-30.68 6.35-44.807-6.289-8.363-15.888-12.772-25.604-12.772zM219.079 140.418a31.849 31.849 0 0 0-18.931 6.222c-14.238 10.47-17.293 30.499-6.823 44.737l202.489 275.372c10.468 14.239 30.499 17.294 44.737 6.823 14.238-10.47 17.293-30.499 6.823-44.737L244.885 153.46299999999997c-6.271-8.528-15.974-13.045-25.806-13.045z"  horiz-adv-x="1024" />
      
      <glyph glyph-name="clear" unicode="&#59272;" d="M508.412288-59.874413000000004c-246.585071 0-447.224718 200.684672-447.224718 447.441659 0 246.738567 200.639646 447.448822 447.224718 447.448822 246.622934 0 447.2503-200.710254 447.2503-447.448822C955.661565 140.81025899999997 755.035222-59.874413000000004 508.412288-59.874413000000004zM685.286672 527.07151l-45.177945 45.215808L504.588193 436.690036 369.06766 572.287317l-45.184085-45.215808 135.520533-135.591141L323.883575 255.88411099999996l45.184085-45.184085 135.520533 135.583978 135.520533-135.583978 45.177945 45.184085L549.766139 391.480368 685.286672 527.07151z"  horiz-adv-x="1024" />
      
      <glyph glyph-name="heart-fill" unicode="&#59023;" d="M729.068827 776.44202c-94.686523 0-176.905082-48.314379-217.069851-118.640074-40.163745 70.325695-122.382305 118.640074-217.044268 118.640074-143.767358 0-229.665727-123.660414-229.665727-243.219417 0-283.128359 415.870616-527.841803 433.576883-538.126031 4.062526-2.363837 8.584516-3.538593 13.132088-3.538593 4.547573 0 9.070586 1.174756 13.132088 3.538593 17.706267 10.283204 433.576883 254.997672 433.576883 538.126031C958.708971 652.781606 872.811626 776.44202 729.068827 776.44202z"  horiz-adv-x="1024" />
      
      <glyph glyph-name="light" unicode="&#59208;" d="M512 72c-172.313 0-312 139.687-312 312s139.687 312 312 312 312-139.687 312-312-139.687-312-312-312z m0 64c136.967 0 248 111.033 248 248 0 136.967-111.033 248-248 248-136.967 0-248-111.033-248-248 0-136.967 111.033-248 248-248z m0 696c17.673 0 32-14.327 32-32v-51c0-17.673-14.327-32-32-32-17.673 0-32 14.327-32 32V800c0 17.673 14.327 32 32 32z m0-785c17.673 0 32-14.327 32-32v-51c0-17.673-14.327-32-32-32-17.673 0-32 14.327-32 32v51c0 17.673 14.327 32 32 32z m325.945 11.055c-12.497-12.496-32.758-12.496-45.255 0l-36.063 36.063c-12.496 12.497-12.496 32.758 0 45.255 12.497 12.496 32.758 12.496 45.255 0l36.063-36.063c12.496-12.497 12.496-32.758 0-45.255z m-568 565c-12.497-12.496-32.758-12.496-45.255 0l-36.063 36.063c-12.496 12.497-12.496 32.758 0 45.255 12.497 12.496 32.758 12.496 45.255 0l36.063-36.063c12.496-12.497 12.496-32.758 0-45.255z m561 81.318c12.496-12.497 12.496-32.758 0-45.255l-36.063-36.063c-12.497-12.496-32.758-12.496-45.255 0-12.496 12.497-12.496 32.758 0 45.255l36.063 36.063c12.497 12.496 32.758 12.496 45.255 0z m-563.572-565c12.496-12.497 12.496-32.758 0-45.255l-36.063-36.063c-12.497-12.496-32.758-12.496-45.255 0-12.496 12.497-12.496 32.758 0 45.255l36.063 36.063c12.497 12.496 32.758 12.496 45.255 0zM960 384c0-17.673-14.327-32-32-32h-51c-17.673 0-32 14.327-32 32 0 17.673 14.327 32 32 32h51c17.673 0 32-14.327 32-32z m-781 0c0-17.673-14.327-32-32-32H96c-17.673 0-32 14.327-32 32 0 17.673 14.327 32 32 32h51c17.673 0 32-14.327 32-32z"  horiz-adv-x="1024" />
      
      <glyph glyph-name="music" unicode="&#59024;" d="M575.4 832h-74.5v-633.5C385 251.20000000000005 249.3 180.70000000000005 226.8 76c-7.3-34.1 7.9-70.9 21.9-87.8 79.3-94.6 252.2-50.5 331.6 51.3 35.2 45.2 32.3 84.6 32.3 181.3V608.5c48.8-36.3 103.9-70.1 123.7-135 12.2-40.3-4.1-107.3-17-141.5-3.9-10.3-14.7-18.9-9.7-29.2 34.2-25.4 51.1 28.6 60.9 51.2 10.6 24.5 20.8 54.7 24.4 75.6C833.2 653.2 595.5 661.7 575.4 832z"  horiz-adv-x="1024" />
      
      <glyph glyph-name="time" unicode="&#59021;" d="M511.98464 829.44c-118.97856 0-230.83008-46.35136-314.95168-130.4832C112.90624 614.84032 66.56 502.95808 66.56 384.00512c0-118.9632 46.34624-230.84544 130.47296-314.9568C281.15456-15.093759999999975 393.00608-61.440000000000055 511.98464-61.440000000000055c118.98368 0 230.84032 46.34624 314.9824 130.48832C911.09376 153.15967999999998 957.44 265.02144 957.44 384.00512c0 118.97856-46.34624 230.8352-130.47296 314.95168C742.82496 783.0886399999999 630.96832 829.44 511.98464 829.44z m275.58912-721.02912c-73.61024-73.63584-171.47904-114.18624-275.58912-114.18624s-201.97376 40.5504-275.57888 114.18624c-73.63584 73.61024-114.16064 171.47904-114.16064 275.59424 0 104.11008 40.54528 201.97376 114.18112 275.58912 73.60512 73.63072 171.47392 114.176 275.584 114.176s201.97376-40.54528 275.584-114.176c73.63584-73.61536 114.18112-171.47904 114.18112-275.58912 0-104.1152-40.56576-201.984-114.2016-275.59424zM519.1168 340.20863999999995V628.08064a27.8528 27.8528 0 0 1-27.84256 27.84768 27.8528 27.8528 0 0 1-27.84256-27.84768v-306.23232a27.81184 27.81184 0 0 1 16.88064-25.58976M734.70464 321.84831999999994a31.0784 31.0784 0 0 0-31.07328-31.0784H496.44544a31.08864 31.08864 0 0 0-31.07328 31.0784 31.09376 31.09376 0 0 0 31.07328 31.0784h207.18592a31.08864 31.08864 0 0 0 31.07328-31.0784z"  horiz-adv-x="1024" />
      
      <glyph glyph-name="ie" unicode="&#59323;" d="M740.32 314.46399999000005l221.2992 0c1.7088 15.3408 2.3808 31.0272 2.3808 47.0592 0 75.2064-20.1792 145.7472-55.4304 206.496 36.4416 96.8448 35.1552 179.0592-13.6512 228.1728-46.4064 46.1952-170.8992 38.7072-311.6352-23.616-10.4064 0.7872-20.928 1.1904-31.5264 1.1904-193.1712 0-355.2384-132.9408-400.032-312.0384 60.5952 77.5872 124.3392 133.824 209.5104 174.7968-7.7376-7.2576-52.9344-52.1664-60.5184-59.7696-224.5824-224.5056-295.392-517.7856-219.1872-594.0096 57.9264-57.9072 162.8928-48.1344 283.4688 10.9248 56.064-28.5504 119.5392-44.6592 186.7584-44.6592 181.056 0 334.5024 116.544 390.0864 278.8608l-223.008 0c-30.6816-56.6016-90.7008-95.136-159.5712-95.136s-128.8896 38.5344-159.5712 95.136c-13.632 25.5744-21.4848 54.8928-21.4848 85.92l0 0.672 362.112 0zM378.5344 423.25119999c5.1072 91.0464 80.8128 163.68 173.2224 163.68s168.096-72.6336 173.2224-163.68l-346.4448 0zM892.9024 750.43839999c31.4304-31.7568 30.6432-90.2016 3.7632-163.1424-46.0608 70.2336-112.992 125.568-192 157.1712 84.48 36.2304 153.1968 41.0304 188.2368 5.9904zM139.648-2.79680000999997c-40.1088 40.128-28.0128 124.32 23.6544 225.7728 32.16-90.2592 94.8288-166.0224 175.6224-214.8288-89.472-40.608-162.6816-47.5008-199.2768-10.944z"  horiz-adv-x="1024" />
      
      <glyph glyph-name="firefox" unicode="&#59014;" d="M515.52500029-47.25q-142.12500029 0-253.36874971 75.58125029t-165.4875 200.1375q-29.1375 65.79375029-33.6562497 151.18125029t13.05 166.98750029 55.74375 156.6937503 89.9062497 121.7999997l-5.5312497-141.13125q5.53124971 7.03125 34.14375 7.78124971t35.15625-7.78124971q21.09375 40.68749971 80.60625 69.3t117.76875029 29.6250003q-27.1125-22.59375029-60.01875-74.5875t-29.38124971-82.1062503q12.56249971-4.01249971 31.3875-6.78750029t31.65000029-3.76875 34.14375-2.00625029 25.36875-1.50000029q7.5375-2.51250029 4.7625003-22.85624971t-15.31874971-37.9125q-2.51250029-3.52500029-8.28749971-9.29999971t-28.36874971-17.83125-50.71875029-17.08125029l7.5375-94.93125029-69.80625 33.6562497q-9.03750029-21.6-3.76875-40.93125029t18.07499971-33.39375029 32.88750029-20.85000029 40.68749971-3.2625q25.61249971 4.51874971 49.21875 17.325t41.94375029 22.59375029 36.91874971 8.79374971q30.63750029-2.00625029 44.94375-16.5750003t9.7875-32.6437497q-0.50625-1.0125-1.25624971-2.75625t-4.275-6.2812503-9.03750029-7.7812497-15.82499971-5.2687503-23.3624997-0.50625q-30.13125029-47.71874971-72.5812497-68.04375029t-105.2250003-14.81249971q37.16250029-30.63750029 81.61875-41.43750029t84.6187497-3.01875029 77.58749971 26.11874971 64.29375 43.9499997 40.42500029 52.2375003q21.6 45.71250029 19.59374971 96.67500029t-18.82500029 94.66875-39.43125 62.775q43.68750029-19.08749971 68.8124997-39.91875029t38.6812503-56.49374971q7.5375 85.3875-28.87499971 172.27500029t-105.22500029 142.63125029q133.0875-38.68125029 206.92500029-140.38125029t75.84374971-259.91250029q1.0125-63.7875-20.3437503-128.06250029t-62.02500029-119.53125-94.93125029-98.4375-124.29375029-68.0437503-144.9-24.8625z"  horiz-adv-x="1025" />
      
      <glyph glyph-name="at" unicode="&#59015;" d="M514.162246 831.556269c-246.201331 0-446.51045-200.783932-446.51045-447.571618 0-246.772336 201.037712-447.539896 448.157973-447.539896 50.29857 0 99.615788 8.224312 146.523121 24.436552 18.414395 6.370081 31.060413 12.423961 31.472805 12.630668 7.194866 3.217275 12.614296 9.049097 15.213493 16.401552 2.63092 7.305383 2.155083 15.133675-1.299599 22.043039l-2.883677 5.831822c-7.131421 14.262842-24.974811 20.569478-40.156582 13.850449-0.031722-0.031722-5.8001-3.02694-20.094664-8.082072-41.075511-14.627139-84.21196-22.059412-128.235616-22.059412-210.92592 0-382.487298 171.57775-382.487298 382.487298S305.423131 766.487298 516.349051 766.487298c210.894198 0 382.455575-171.5931 382.455575-382.423853-0.887206-51.868321-13.882172-100.486622-36.606733-136.855948-20.664645-33.104979-46.939055-51.994188-72.199369-51.994188-0.317225 0-0.601704 0-0.887206 0-45.829791 0.792039-75.433016 68.586075-75.433016 172.718737l0 185.269587c0 5.53097-1.426489 9.635451-4.373611 12.550851-4.944616 4.944616-12.360516 4.817726-21.267373 4.864798l-2.472308-0.016373-9.223059 0.016373c-7.701402-0.031722-13.469779 0.063445-17.495466-3.945869-3.645017-3.613294-4.119831-9.096169-4.119831-13.469779l0-31.060413c-45.196365 36.100196-80.440054 59.474556-131.9758 60.378136-1.045819 0.016373-2.059915 0.031722-3.074012 0.031722-108.74368 0-198.470237-99.218746-200.657043-222.779899-2.155083-124.701117 84.845387-227.723491 193.969737-229.625818 1.045819-0.01535 2.059915-0.031722 3.074012-0.031722 63.293535 0 122.276904 34.087353 159.992901 92.103698 24.373107-60.251246 61.519122-91.216491 110.48637-92.071975 0.697895-0.01535 1.394766-0.01535 2.060939-0.01535 33.945113 0 66.716494 14.610766 94.924953 42.328038 47.63695 46.796816 76.066443 124.796284 76.066443 208.643947l0 2.883677C959.595154 630.772336 759.761873 831.556269 514.162246 831.556269zM646.73975 354.651578c0-92.230588-58.475809-167.282934-130.390699-167.282934s-130.390699 75.052347-130.390699 167.282934c0 92.246961 58.475809 167.298284 130.390699 167.298284S646.73975 446.897515 646.73975 354.651578z"  horiz-adv-x="1024" />
      
      <glyph glyph-name="bluetooth" unicode="&#59017;" d="M844.799642 221.19607699999995L538.533306 374.84141l307.696917 177.029926c10.583033 5.006014 17.398252 15.59621 17.569144 27.302833s-6.332219 22.491247-16.764825 27.804253L475.584626 830.045869c-9.517771 4.846378-20.869307 4.39817-29.974685-1.181919-9.105379-5.581112-14.656815-15.493879-14.656815-26.174126l0-288.760636L210.662931 699.284733c-12.974499 10.915607-32.339546 9.248641-43.255153-3.724835-10.915607-12.973476-9.248641-32.339546 3.724835-43.255153L430.953126 433.687656l0-102.83511L171.558307 120.428046c-13.166881-10.68127-15.181771-30.013571-4.500501-43.180452 6.068206-7.480368 14.924921-11.360745 23.859407-11.360745 6.794753 0 13.634532 2.245134 19.322068 6.859221l220.714867 179.046862 0-283.065937c0-10.689457 5.561669-20.61041 14.680351-26.188452 4.903683-2.99931 10.455119-4.510734 16.019859-4.510734 4.78498 0 9.580193 1.118474 13.980409 3.368724l371.449917 224.085638c10.664897 5.456269 17.182334 16.618493 16.691147 28.589129C863.284645 206.04091200000005 855.875908 216.63110800000004 844.799642 221.19607699999995zM763.458055 580.639542L492.351498 420.917818l0 21.60711c0.563842 3.368724 0.558725 6.801916 0 10.153244L492.351498 752.604102 763.458055 580.639542zM492.351498 18.915047999999956L492.351498 311.51001199999996c0.558725 3.347235 0.562818 6.777357 0 10.146081l0 5.809309 267.472797-137.65822L492.351498 18.915047999999956z"  horiz-adv-x="1024" />
      
      <glyph glyph-name="chrome" unicode="&#59018;" d="M515.436 583.685H914.285C840.842 730.955 688.748 832.132 513 832.132c-141.284 0-267.274-65.395-349.42-167.546l151.66-262.682c8.535 102.325 95.704 181.781 200.196 181.781zM514.218 550.803c-91.476 0-165.631-74.155-165.631-165.631s74.155-165.631 165.631-165.631c52.7 0 99.615 24.642 129.95 62.999l1.428 2.474 0.355-0.205c21.252 27.852 33.898 62.624 33.898 100.363 0 84.774-63.702 154.626-145.841 164.413l-6.393 0.632c-4.424 0.354-8.882 0.586-13.397 0.586zM929.561 549.585H627.443c52.209-36.066 86.506-96.297 86.506-164.413 0-45.547-18.268-81.598-41.12-121.192L483.898-63.257c9.624-0.617 19.322-0.966 29.102-0.966 247.521 0 448.177 200.656 448.177 448.177 0 58.508-11.225 114.391-31.616 165.631zM514.218 185.441c-83.583 0-144.927 54.804-185.034 124.651l-0.235-0.136-187.482 324.727C93.081 563.124 64.823 476.84 64.823 383.954c0-225.02 165.839-411.288 381.958-443.298l152.278 263.752c-25.769-12.143-54.518-18.967-84.841-18.967z"  horiz-adv-x="1024" />
      
      <glyph glyph-name="edge" unicode="&#59019;" d="M854.794 669.297C797.923 743.783 683.626 823.59 548.62 830.822 136.707 852.889 85.742 435.448 85.742 435.448c55.449 53.038 58.01 97.116 163.936 154.293C673.983 818.768 676.394 476.432 676.394 476.432H346.111c-7.232 65.092 62.681 137.417 62.681 137.417-202.509-98.844-216.974-284.477-216.974-284.477s-28.93-279.655 219.385-364.034 452.029 42.189 452.029 42.189V193.16c-59.065-32.546-102.292-54.405-153.087-63.887-361.623-67.503-364.034 188.044-364.034 188.044h585.83c0 0.001 39.075 199.761-77.147 351.98z"  horiz-adv-x="1024" />
      
      <glyph glyph-name="heart" unicode="&#59020;" d="M512 4.100000000000023c-108.9 0-447.3 277.5-447.3 522.2 0 131 106.6 237.6 237.6 237.6 94.9 0 174.8-50.2 209.7-76.1 34.9 25.9 114.8 76.1 209.7 76.1 131 0 237.6-106.6 237.6-237.6 0-244.7-338.4-522.2-447.3-522.2zM302.3 708c-100.2 0-181.7-81.5-181.7-181.7 0-221 326.8-466.3 391.4-466.3s391.4 245.3 391.4 466.3c0 100.2-81.5 181.7-181.7 181.7-103.9 0-190.2-76-191.1-76.8-10.6-9.5-26.7-9.5-37.3 0-0.8 0.8-87.7 76.8-191 76.8z"  horiz-adv-x="1024" />
      
      <glyph glyph-name="key" unicode="&#59011;" d="M819.2 588.8c0-172.8-140.8-307.2-307.2-307.2-172.8 0-307.2 140.8-307.2 307.2C204.8 755.2 339.2 896 512 896S819.2 755.2 819.2 588.8L819.2 588.8zM512 838.4c-140.8 0-249.6-115.2-249.6-249.6 0-134.4 108.8-256 249.6-256s256 115.2 256 249.6S652.8 838.4 512 838.4L512 838.4zM480 300.79999999999995l64 0L544-128l-64 0L480 300.79999999999995 480 300.79999999999995zM512 192l192 0 0-64L512 128 512 192 512 192zM512 64l192 0 0-64L512 0 512 64 512 64z"  horiz-adv-x="1024" />
      
      <glyph glyph-name="android" unicode="&#59012;" d="M391.405714 662.66209566a22.308571 22.308571 0 0 1 0 44.544c-11.995429 0-21.723429-10.276571-21.723428-22.272s9.728-22.272 21.723428-22.272z m241.152 0c11.995429 0 21.723429 10.276571 21.723429 22.272s-9.728 22.272-21.723429 22.272a22.308571 22.308571 0 0 1 0-44.544zM168.539429 557.51923766a58.514286 58.514286 0 0 0 58.294857-58.294857v-245.723428c0-32.585143-25.709714-58.843429-58.294857-58.843429S109.696 220.95238066000002 109.696 253.50095266000005v245.723428c0 32 26.294857 58.294857 58.843429 58.294857z m605.732571-10.861714v-380.562286c0-34.852571-28.013714-62.866286-62.281143-62.866285h-42.861714v-129.718857c0-32.585143-26.294857-58.843429-58.843429-58.843429s-58.843429 26.294857-58.843428 58.843429v129.718857H472.594286v-129.718857c0-32.585143-26.294857-58.843429-58.843429-58.843429a58.660571 58.660571 0 0 0-58.294857 58.843429l-0.585143 129.718857H312.594286a62.683429 62.683429 0 0 0-62.866286 62.866285V546.6575236599999h524.580571z m-132.571429 231.424c80.018286-41.142857 134.290286-119.990857 134.290286-210.870857H247.424c0 90.843429 54.272 169.728 134.838857 210.870857L341.705143 852.94323766a8.338286 8.338286 0 0 0 2.852571 11.446858c3.986286 1.718857 9.142857 0.585143 11.446857-3.437715L397.147429 785.50552366c34.852571 15.433143 73.728 23.990857 114.870857 23.990857s80.018286-8.557714 114.870857-23.990857l41.142857 75.446857c2.304 3.986286 7.424 5.156571 11.446857 3.437715a8.338286 8.338286 0 0 0 2.852572-11.446858zM914.267429 499.22438066v-245.723428c0-32.585143-26.294857-58.843429-58.843429-58.843429a58.660571 58.660571 0 0 0-58.294857 58.843429v245.723428a58.148571 58.148571 0 0 0 58.294857 58.294857c32.585143 0 58.843429-25.709714 58.843429-58.294857z"  horiz-adv-x="1024" />
      
      <glyph glyph-name="mike" unicode="&#59100;" d="M512 256c115.2 0 208 92.8 208 208V624c0 115.2-92.8 208-208 208s-208-92.8-208-208v-160c0-115.2 92.8-208 208-208zM368 624c0 80 64 144 144 144s144-64 144-144v-160c0-80-64-144-144-144s-144 64-144 144V624zM844.8 416c0 17.6-14.4 32-32 32-16 0-30.4-12.8-32-28.8C758.4 289.6 646.4 192 512 192s-246.4 97.6-268.8 227.2c-1.6 16-16 28.8-32 28.8-17.6 0-32-14.4-32-32v-4.8C204.8 260.79999999999995 328 144 480 129.60000000000002V-32c0-17.6 14.4-32 32-32s32 14.4 32 32V129.60000000000002c152 14.4 275.2 131.2 299.2 280 0 1.6 1.6 4.8 1.6 6.4z"  horiz-adv-x="1024" />
      
      <glyph glyph-name="mute" unicode="&#59013;" d="M739 294.4l180.2 180.2M735.391 297.9l180.24 180.24 7.07-7.07-180.239-180.24zM631.4-29.700000000000045c-5.1 0-10.1 1.3-14.5 3.7L277.1 162.20000000000005H116.8c-16 0-28.9 13-28.9 28.9v384c0 16 13 28.9 28.9 28.9h160.3l339.7 189.9c4.5 2.5 9.5 3.8 14.6 3.8 5.3 0 10.6-1.4 15.1-4.1 9.1-5.3 14.8-15.2 14.8-25.8v-767.6c0-10.5-5.6-20.4-14.7-25.8-4.6-2.7-9.9-4.1-15.2-4.1zM305.8 551.5v-336.7L601.4 51V716.8L305.8 551.5zM145.7 220.10000000000002h102.2v326H145.7v-326zM913.2 258.9c-9.3 0-18.1 3.6-24.7 10.3l-63.4 63.4-63.4-63.4c-6.6-6.6-15.4-10.3-24.7-10.3s-18.1 3.6-24.7 10.3c-13.6 13.6-13.6 35.9 0 49.5l63.4 63.4-67.4 67.4c-6.6 6.6-10.3 15.4-10.3 24.7 0 9.3 3.6 18.1 10.3 24.7 6.6 6.6 15.4 10.3 24.7 10.3s18.1-3.6 24.7-10.3l67.4-67.4 67.4 67.4c6.6 6.6 15.4 10.3 24.7 10.3s18.1-3.6 24.7-10.3c6.6-6.6 10.3-15.4 10.3-24.7 0-9.3-3.6-18.1-10.3-24.7L874.6 382l63.4-63.4c13.6-13.6 13.6-35.9 0-49.5-6.7-6.6-15.5-10.2-24.8-10.2z"  horiz-adv-x="1024" />
      
      <glyph glyph-name="gift" unicode="&#58919;" d="M796.3 600h-6.7c5.1 6.7 9.6 13.4 13.4 20.1 18.3 32.2 20.8 63.1 7 87.1-9.1 15.7-33 41.2-91.9 36-35.4-3.2-76.1-17.2-114.7-39.4-37.9-21.9-68.9-49.3-89-77.5-4.5 6.4-9.5 12.8-15.1 19.1-19.8 22.3-45.4 42.8-74.1 59.4-38.4 22.2-79.3 35.9-115.1 38.5-43.3 3.2-75.8-10-91.4-37-13.8-24-11.3-54.8 7-86.7 3.7-6.5 8.1-13 13.1-19.5H236c-21.3 0-41.6-7.2-57.4-20.2-17.8-14.9-27.6-35.4-27.6-58v-50.8c0-34.4 23-64.6 55-76.6v-283.9c0-23.3 10.9-47.1 30.1-65.3 18.3-17.4 41.4-27.3 63.4-27.3h434.3c22 0 44.9 10 63 27.6 18.7 18.1 29.3 41.8 29.3 65.1V395c11 4.3 19.6 10.9 27.2 19.5 13.3 15.1 20.8 35.2 20.8 56.6v50.8c-0.1 45.3-32.8 78.1-77.8 78.1z m17.7-78.1v-50.8c0-7.7-3.2-20.3-15-22-0.9 0.1-1.7 0.1-2.6 0.1-1.5 0-2.9-0.1-4.3-0.3H543v91h253.3c11.9 0.1 17.7-5.8 17.7-18zM633.4 651.8c30.7 17.7 63.5 29.2 90 31.6 21.5 1.9 32.6-2.8 34.6-6.3 4.2-7.3-6.3-41.2-52.9-77.2H569.8c14 17 35.3 35.6 63.6 51.9z m-362.8 24.4c2.2 3.7 13.3 8.7 35 7.1 26.6-1.9 59.2-13.1 89.5-30.6 27.7-16 49.4-35.1 63.9-52.8H323.5c-20.3 15.6-36.4 32.9-45.8 49.4-8.9 15.6-8.5 24.4-7.1 26.9zM211 521.9c0 11.2 12.9 18.1 24.9 18.1H483v-91H240.1c-1.4 0.2-2.8 0.3-4.3 0.3-0.9 0-1.8 0-2.7-0.1-11.5 1.5-22.1 11.6-22.1 22v50.7z m55-411.3V389h217v-311H299.4c-13.2 0-33.4 17.5-33.4 32.6zM733.7 78H543V389h223v-278.4c0-15.5-19.1-32.6-32.3-32.6z"  horiz-adv-x="1024" />
      
      <glyph glyph-name="windows" unicode="&#59007;" d="M437 329l0-325.5-341 47 0 278.5 341 0zm0 371.5l0-329.5-341 0 0 282.5zm491-371.5l0-393-453.5 62.5 0 330.5 453.5 0zm0 439l0-397-453.5 0 0 334.5z"  horiz-adv-x="1024" />
      
      <glyph glyph-name="ios" unicode="&#59008;" d="M821.235026 351.984884c-1.287001 129.729651 105.791442 191.891776 110.553344 194.980577-60.102924 88.030835-153.796561 100.12864-187.258574 101.54434-79.794032 7.979403-155.598362-46.975519-196.010178-46.975519-40.411816 0-102.831341 45.688518-168.983167 44.530218-86.872534-1.287001-167.052666-50.57912-211.840284-128.442651-90.347436-156.756662-23.166009-388.931554 64.864826-515.958505 42.985817-62.162125 94.337137-132.046252 161.647264-129.600951 64.864826 2.574001 89.317835 41.956217 167.696167 41.956217s100.38604-41.956217 169.111867-40.669216c69.755428 1.287001 114.028245 63.449125 156.756662 125.86865 49.42082 72.200729 69.755428 142.084856 70.913728 145.559758C957.14228 145.550002 822.522026 197.030023 821.235026 351.984884L821.235026 351.984884 821.235026 351.984884zM692.277575 732.550935c35.778614 43.371917 59.845524 103.474841 53.281821 163.449065-51.48002-2.059201-113.899545-34.234214-150.83646-77.477431C561.647023 780.041254 532.560811 718.78003 540.411514 660.092806 597.811737 655.588305 656.49896 689.307718 692.277575 732.550935L692.277575 732.550935 692.277575 732.550935z"  horiz-adv-x="1084" />
      
      <glyph glyph-name="logout" unicode="&#59010;" d="M512 832a32 32 0 0 1-32-32v-416a32 32 0 0 1 64 0V800a32 32 0 0 1-32 32zM683.34 798.06a32 32 0 0 1-24.48-59.15C798.07 681.24 896 544.06 896 384c0-212.08-171.92-384-384-384S128 171.91999999999996 128 384c0 160.06 97.93 297.24 237.14 354.91a32 32 0 0 1-24.48 59.15C178.25 730.78 64 570.74 64 384c0-247.42 200.58-448 448-448s448 200.58 448 448c0 186.74-114.25 346.78-276.66 414.06z"  horiz-adv-x="1024" />
      
      <glyph glyph-name="wifi" unicode="&#59360;" d="M723 275.5C666.8 324.4 593.4 354 513 354s-153.8-29.6-210.1-78.6c-3.2-2.8-3.6-7.8-0.8-11.2l36-42.9c2.9-3.4 8-3.8 11.4-0.9C393.1 258.8 450.3 282 513 282s119.9-23.2 163.5-61.5c3.4-2.9 8.5-2.5 11.4 0.9l36 42.9c2.8 3.3 2.4 8.3-0.9 11.2zM840.4 415.6C751.7 489.5 637.6 534 513 534s-238.7-44.5-327.5-118.4c-3.4-2.8-3.8-7.9-1-11.3l36-42.9c2.8-3.4 7.9-3.8 11.2-1C308 423.8 406.1 462 513 462s205-38.2 281.2-101.6c3.4-2.8 8.4-2.4 11.2 1l36 42.9c2.8 3.4 2.4 8.5-1 11.3zM957.1 554.6C835.7 654.2 680.3 714 511 714c-168.2 0-322.6-59-443.7-157.4-3.5-2.8-4-7.9-1.1-11.4l36-42.9c2.8-3.3 7.8-3.8 11.1-1.1C222 589.3 360.3 642 511 642c151.8 0 291-53.5 400-142.7 3.4-2.8 8.4-2.3 11.2 1.1l36 42.9c2.9 3.4 2.4 8.5-1.1 11.3zM512 118m-64 0a64 64 0 1 1 128 0 64 64 0 1 1-128 0Z"  horiz-adv-x="1024" />
      
      <glyph glyph-name="rss" unicode="&#59400;" d="M810.666667 63.95733332999998C810.666667 416.89600033 523.562667 704.00000033 170.666667 704.00000033v-85.333334c305.834667 0 554.666667-248.832 554.666666-554.709333h85.333334zM512 63.95733332999998h85.333333C597.333333 299.26400033000004 405.930667 490.66666633 170.666667 490.66666633v-85.333333c188.202667 0 341.333333-153.130667 341.333333-341.376zM256 149.33333332999996m-85.333333 0a85.333333 85.333333 0 1 1 170.666666 0 85.333333 85.333333 0 1 1-170.666666 0Z"  horiz-adv-x="1024" />
      
      <glyph glyph-name="email" unicode="&#58904;" d="M834.446 682.553H194.105c-50.176 0-91.022-40.846-91.022-91.022v-423.026c0-50.176 40.846-91.022 91.022-91.022h640.341c50.176 0 91.022 40.846 91.022 91.022V591.531c0 50.176-40.846 91.022-91.022 91.022z m36.409-514.048c0-20.025-16.384-36.409-36.409-36.409H194.105c-20.025 0-36.409 16.384-36.409 36.409V591.531c0 20.025 16.384 36.409 36.409 36.409h640.341c20.025 0 36.409-16.384 36.409-36.409v-423.026zM786.773 537.941L514.275 366.023 241.777 537.941c-12.743 8.078-29.582 4.21-37.661-8.533-8.078-12.743-4.21-29.582 8.533-37.661l286.72-180.907c4.551-2.845 9.557-4.21 14.563-4.21h0.91c5.006 0 10.013 1.365 14.563 4.21l286.72 180.907c12.743 8.078 16.611 24.917 8.533 37.661-8.306 12.857-25.145 16.611-37.888 8.533z"  horiz-adv-x="1024" />
      
      <glyph glyph-name="reduce-circle" unicode="&#58902;" d="M512-65.5c-60.6 0-119.4 11.9-174.8 35.3-53.5 22.6-101.5 55-142.7 96.2-41.2 41.2-73.6 89.2-96.2 142.7C74.9 264.1 63 322.9 63 383.5s11.9 119.4 35.3 174.8c22.6 53.5 55 101.5 96.2 142.7 41.2 41.2 89.2 73.6 142.7 96.2C392.6 820.6 451.4 832.5 512 832.5s119.4-11.9 174.8-35.3c53.5-22.6 101.5-55 142.7-96.2 41.2-41.2 73.6-89.2 96.2-142.7 23.4-55.4 35.3-114.2 35.3-174.8s-11.9-119.4-35.3-174.8c-22.6-53.5-55-101.5-96.2-142.7s-89.2-73.6-142.7-96.2c-55.4-23.4-114.2-35.3-174.8-35.3z m0 848c-220 0-399-179-399-399s179-399 399-399 399 179 399 399-179 399-399 399zM772 359H252c-13.8 0-25 11.2-25 25s11.2 25 25 25h520c13.8 0 25-11.2 25-25s-11.2-25-25-25z"  horiz-adv-x="1024" />
      
      <glyph glyph-name="transfer" unicode="&#59025;" d="M320 768H128c-35.2 0-64-28.8-64-64v-640c0-35.2 28.8-64 64-64h192c35.2 0 64 28.8 64 64V704c0 35.2-28.8 64-64 64z m0-672c0-16-16-32-32-32H160c-16 0-32 16-32 32V672c0 16 16 32 32 32h128c16 0 32-16 32-32v-576z m256 544h-64c-19.2 0-32-12.8-32-32s16-32 32-32h64c19.2 0 32 12.8 32 32s-16 32-32 32z m-64-448h-64c-19.2 0-32-12.8-32-32s16-32 32-32h64c19.2 0 32 12.8 32 32s-16 32-32 32z m384 576H704c-35.2 0-64-28.8-64-64v-640c0-35.2 28.8-64 64-64h192c35.2 0 64 28.8 64 64V704c0 35.2-28.8 64-64 64z m0-672c0-16-16-32-32-32H736c-16 0-32 16-32 32V672c0 16 16 32 32 32h128c16 0 32-16 32-32v-576z"  horiz-adv-x="1024" />
      
      <glyph glyph-name="service" unicode="&#58918;" d="M849.00812012 487.71642715A27.54528398 27.54528398 0 0 1 849.00812012 496.71080566 337.28919434 337.28919434 0 0 1 174.42973145 496.71080566a27.54528398 27.54528398 0 0 1-1e-8-8.99437852 147.28294776 147.28294776 0 0 1-112.42973144-140.53716386V328.06620849a148.40724551 148.40724551 0 0 1 123.67270459-143.34790781A308.6196126 308.6196126 0 0 1 414.4672083-9.222985839999978h5.05933769a84.32229815 84.32229815 0 1 1 0 56.21486573 252.40474688 252.40474688 0 0 0-172.01748955 137.16427235h31.48032481A35.41536562 35.41536562 0 0 1 314.96689531 215.63647705000005V458.48469697a35.41536562 35.41536562 0 0 1-35.97751406 34.29106787H230.64459717A26.42098711 26.42098711 0 0 1 230.64459717 496.71080566a281.07432862 281.07432862 0 0 0 562.14865723 0 26.42098711 26.42098711 0 0 1 0-3.3728915h-48.34478497a35.41536562 35.41536562 0 0 1-35.97751406-34.29106875V215.63647705000005a35.41536562 35.41536562 0 0 1 35.97751406-34.29106787h63.52279893A150.0936917 150.0936917 0 0 1 961.43785156 328.06620849v19.11305479a147.28294776 147.28294776 0 0 1-112.42973144 140.53716386zM498.22735801 46.991879880000056a28.10743242 28.10743242 0 1 0-28.1074333-28.10743242 28.10743242 28.10743242 0 0 0 28.10743329 28.10743242zM258.75202959 240.37101797000003h-43.28544639A93.87882598 93.87882598 0 0 0 118.21486572 328.06620849v19.11305479a93.87882598 93.87882598 0 0 0 97.25171748 89.94378516h43.28544639zM905.22298584 328.06620849a93.87882598 93.87882598 0 0 0-97.25171748-89.94378515h-43.28544727V437.12304844h43.28544727A93.87882598 93.87882598 0 0 0 905.22298584 347.17926328zM633.70518418 705.83010615l-20.7995001 7.30793232a28.10743242 28.10743242 0 0 1-17.42660859-56.21486571l16.30231084-6.18363458a28.10743242 28.10743242 0 1 1 21.92379785 51.71767646zM330.14490928 639.49656503A28.10743242 28.10743242 0 0 1 376.80324805 609.14053711 177.63897568 177.63897568 0 0 0 511.71892578 676.59837597a28.10743242 28.10743242 0 0 1 0 56.21486573 231.60524678 231.60524678 0 0 1-181.57401651-93.31667667z"  horiz-adv-x="1024" />
      
      <glyph glyph-name="addition" unicode="&#58916;" d="M544 768L480 768 480 416 128 416 128 352 480 352 480 0 544 0 544 352 895.936 352 895.936 416 544 416Z"  horiz-adv-x="1024" />
      
      <glyph glyph-name="subtraction" unicode="&#59006;" d="M785 348H239c-19.8 0-36 16.2-36 36s16.2 36 36 36h546c19.8 0 36-16.2 36-36s-16.2-36-36-36z"  horiz-adv-x="1024" />
      
      <glyph glyph-name="slider" unicode="&#59156;" d="M228.7 683.9v-66.7H112v66.7h116.7z m333.2-266.6v-66.7H112v66.7h449.9zM295.4 150.60000000000002V84H112v66.7h183.4v-0.1z m116.6 600c9 0 16.8-3.3 23.5-9.9 6.5-6.5 9.9-14.5 9.9-23.5v-133.3c0-9-3.3-16.8-9.9-23.5-6.5-6.5-14.5-9.9-23.5-9.9H278.8c-9 0-16.8 3.3-23.5 9.9-6.5 6.5-9.9 14.3-9.9 23.5V717.1c0 9 3.3 16.8 9.9 23.5 6.5 6.5 14.3 9.9 23.5 9.9h133.3v0.1h-0.1z m66.7-533.3c9 0 16.8-3.3 23.5-9.9 6.5-6.5 9.9-14.5 9.9-23.5v-133.3c0-9-3.3-16.8-9.9-23.5-6.5-6.5-14.5-9.9-23.5-9.9H345.3c-9 0-16.8 3.3-23.5 9.9-6.5 6.5-9.9 14.5-9.9 23.5V183.89999999999998c0 9 3.3 16.8 9.9 23.5 6.5 6.5 14.3 9.9 23.5 9.9h133.4v0.1zM912 683.9v-66.7H462.1v66.7H912z m0-533.3V84H528.6v66.7h383.3v-0.1h0.1zM745.2 483.9c9 0 16.8-3.3 23.5-9.9 6.5-6.5 9.9-14.5 9.9-23.5v-133.3c0-9-3.3-16.8-9.9-23.5-6.5-6.5-14.5-9.9-23.5-9.9H612c-9 0-16.8 3.3-23.5 9.9-6.5 6.5-9.9 14.3-9.9 23.5V450.6c0 9 3.3 16.8 9.9 23.5 6.5 6.5 14.5 9.9 23.5 9.9l133.2-0.1zM912 417.3v-66.7H795.3v66.7H912z"  horiz-adv-x="1024" />
      
      <glyph glyph-name="print" unicode="&#58989;" d="M843.946667 603.733333h-47.36V725.333333a90.026667 90.026667 0 0 1-94.72 85.333334H312.32a81.493333 81.493333 0 0 1-85.333333-85.333334v-121.6H170.666667a81.493333 81.493333 0 0 1-85.333334-85.333333v-325.12a89.173333 89.173333 0 0 1 85.333334-93.866667h56.746666v-52.48a89.6 89.6 0 0 1 89.6-89.6h389.973334a89.6 89.6 0 0 1 89.6 89.6v52.48h47.36a97.706667 97.706667 0 0 1 94.72 93.866667V518.4a90.026667 90.026667 0 0 1-94.72 85.333333zM279.466667 725.333333a30.72 30.72 0 0 0 32.853333 33.706667h389.546667c18.773333 0 42.666667-11.52 42.666666-33.706667v-121.6H279.466667z m465.066666-678.4a37.546667 37.546667 0 0 0-37.546666-37.973333H317.013333a37.546667 37.546667 0 0 0-37.546666 37.973333v170.666667a37.546667 37.546667 0 0 0 37.546666 38.4h389.973334a37.546667 37.546667 0 0 0 37.546666-37.973333z m142.506667 146.346667a45.653333 45.653333 0 0 0-42.666667-42.666667h-47.786666v66.133334a89.6 89.6 0 0 1-89.6 89.6H317.013333a89.6 89.6 0 0 1-89.6-89.6v-65.28H170.666667a37.546667 37.546667 0 0 0-33.28 42.666666v324.266667A31.146667 31.146667 0 0 0 170.666667 552.106667h673.28c19.2 0 42.666667-11.52 42.666666-33.706667z m-640 281.173333h-37.546667a13.226667 13.226667 0 0 0 0 26.026667h38.826667a13.226667 13.226667 0 1 0 0-26.026667z m94.293333 0H298.666667a13.226667 13.226667 0 1 0 0 26.026667h42.666666a13.226667 13.226667 0 0 0 0-26.026667z m426.666667-116.48H248.32a13.226667 13.226667 0 0 0 0 26.026667H768a13.226667 13.226667 0 0 0 0-26.026667z"  horiz-adv-x="1024" />
      
      <glyph glyph-name="export" unicode="&#59005;" d="M896.4374528 479.830016c0 26.673152-21.6236032 48.2967552-48.2967552 48.2967552H630.8069376c-26.673152 0-48.2967552-21.6236032-48.2967552-48.2967552v-83.04831147H384.69522773l-2.71428266 5.36849067c-41.336832 87.44686933-35.95195733 204.128256 150.601728 199.94487467v-108.91537067l172.19037866 164.757504L532.58267307 822.7110912v-106.57245867c-228.64418133 5.70709333-263.651328-183.517184-157.433856-314.01028266l4.6891008-5.34664534h-88.46595414c-26.673152 0-48.2967552-21.6236032-48.2967552-48.2967552v-66.78882986h-98.43616426c-26.673152 0-40.4258816-21.6236032-30.71781547-48.2967552l79.10304427-217.33485227c9.70806613-26.673152 39.20145067-48.2967552 65.87460266-48.2967552h603.70670934c23.75898453 0 37.2506624 17.16169387 33.05745066 39.76178347 0.4980736 2.77108053 0.77441707 5.619712 0.77441707 8.53497173v463.765504z m-60.37067093-306.4528896l-21.8464256 60.02223787c-9.70806613 26.673152-39.20145067 48.2967552-65.87460267 48.2967552H303.44697173v30.56708266c0 13.336576 10.81125547 24.14783147 24.14783147 24.14783147h315.28605013v107.1972352c0 13.336576 10.81125547 24.14783147 24.14783147 24.14783147h144.88917333c13.336576 0 24.14783147-10.81125547 24.14783147-24.14783147v-270.2311424z"  horiz-adv-x="1024" />
      
      <glyph glyph-name="cols" unicode="&#58896;" d="M128 426.66666667h384V810.66666667H128z m64 320h256v-256H192zM576 810.66666667v-384h384V810.66666667z m320-320H640V746.66666667h256zM192 362.66666667000004h64v-384H192zM384 362.66666667000004h64v-384H384zM640 362.66666667000004h64v-384H640zM832 362.66666667000004h64v-384h-64z"  horiz-adv-x="1024" />
      
      <glyph glyph-name="screen-full" unicode="&#58914;" d="M641.750109 511.899972l205.227128 204.519-0.704035-115.89966c-0.282433-9.611915 7.489578-18.09103 17.101493-17.808598l12.297071 0c9.611915 0.283456 17.667382 5.936199 17.808598 15.689331l0.565888 172.57752c0 0.14224 0.282433 9.187243 0.282433 9.187243 0.14224 4.804423-0.99056 9.187243-4.100388 12.297071-3.109828 3.109828-7.347339 5.086855-12.297071 4.946662l-8.763594-0.14224c-0.141216 0-0.278339 0-0.420579-0.14224L697.581696 797.833213c-9.611915-0.283456-17.667382-8.200776-17.808598-17.950837l0-12.297071c1.416256-11.44875 10.458189-18.092054 20.070104-17.808598l112.789832-0.283456-204.66124-203.814965c-9.329483-9.329483-9.329483-24.449855 0-33.778314 9.329483-9.470699 24.452925-9.470699 33.782408 0L641.750109 511.899972zM383.095141 319.11010699999997L177.726797 115.29411900000002l0.707105 115.338888c0.283456 9.607822-7.492648 18.086937-17.104563 17.808598l-13.001105 0c-9.611915-0.283456-17.667382-5.937223-17.808598-15.690354l-0.565888-172.718737c0-0.14224-0.282433-9.187243-0.282433-9.187243-0.14224-4.808516 0.99056-9.187243 4.096295-12.297071 3.109828-3.109828 7.351432-5.086855 12.297071-4.946662l8.762571 0.14224c0.14224 0 0.283456 0 0.425695 0.14224l171.873486-0.708128c9.607822 0.283456 17.667382 8.196683 17.808598 17.950837L344.93503 63.42477399999996c-1.415232 11.44875-10.461259 18.092054-20.074198 17.808598L212.069977 81.51682800000003 416.59 285.32872299999997c9.329483 9.329483 9.329483 24.453948 0 33.782408C407.40685 328.58182999999997 392.424624 328.58182999999997 383.095141 319.11010699999997L383.095141 319.11010699999997zM894.047276 60.03251399999999l-0.424672 172.718737c-0.283456 9.612938-8.200776 15.406898-17.809621 15.690354l-12.296047 0c-9.612938 0.278339-17.243733-8.200776-17.105586-17.808598l0.708128-115.903753L641.750109 319.11010699999997c-9.329483 9.329483-24.452925 9.329483-33.782408 0-9.325389-9.328459-9.325389-24.452925 0-33.782408L812.490795 81.51682800000003l-112.789832-0.283456c-9.611915 0.283456-18.515702-6.502088-20.073174-17.808598l0-12.297071c0.282433-9.611915 8.200776-17.667382 17.808598-17.950837l171.166381 0.708128c0.141216 0 0.282433-0.14224 0.424672-0.14224l8.763594-0.14224c4.803399-0.141216 9.187243 1.694595 12.296047 4.946662 3.109828 3.109828 4.238534 7.488555 4.097318 12.297071 0 0-0.14224 9.046027-0.14224 9.187243L894.047276 60.03149099999996zM212.216309 749.493252l112.789832 0.283456c9.607822-0.283456 18.512632 6.502088 20.070104 17.808598L345.076246 779.883399c-0.283456 9.611915-8.196683 17.667382-17.808598 17.950837l-172.011632-0.708128c-0.14224 0-0.283456 0.14224-0.425695 0.14224l-8.761548 0.14224c-4.808516 0.141216-9.187243-1.694595-12.297071-4.946662-3.109828-3.109828-4.242627-7.488555-4.096295-12.297071 0 0 0.282433-9.046027 0.282433-9.187243l0.420579-172.718737c0.14224-9.608845 8.200776-15.406898 17.808598-15.686261l13.005198 0c9.611915-0.282433 17.242709 8.196683 17.10047 17.808598l-0.564865 115.334795 205.231221-203.958228c9.324366-9.329483 24.448832-9.329483 33.777291 0 9.329483 9.329483 9.329483 24.452925 0 33.782408L212.216309 749.493252 212.216309 749.493252zM212.216309 749.493252"  horiz-adv-x="1024" />
      
      <glyph glyph-name="screen-restore" unicode="&#59224;" d="M582.6 454.6v320h50V540l274 274 35.4-35.4-274-274h234.6v-50h-320zM117.4-46l274 274v-234.6h50v320h-320v-50H356l-274-274 35.4-35.4zM132 764h302V814H82v-352h50V764z m760-760H590v-50h352V306h-50v-302z"  horiz-adv-x="1024" />
      
      <glyph glyph-name="rate-half" unicode="&#59081;" d="M1012.064 504l-359.552 31.008-140.512 331.04-140.512-331.552-359.552-30.496 273.024-236.544-82.016-351.552 309.056 186.528 309.056-186.528-81.504 351.552 272.544 236.544zM512 195.96799999999996l0 465.056 85.504-202.016 219.04-19.008-166.016-144.032 50.016-214.016-188.512 114.016z"  horiz-adv-x="1024" />
      
      <glyph glyph-name="rate-solid" unicode="&#59002;" d="M957.111079 492.519576c-3.927449 11.669784-14.447037 19.86442-26.723641 20.816095L647.68068 535.250796 540.183388 811.873997c-4.586458 11.803837-15.951297 19.579941-28.614711 19.579941s-24.02723-7.776104-28.614711-19.579941L375.458719 535.250796l-282.708803-21.915126c-12.276604-0.951675-22.796192-9.146311-26.723641-20.816095-3.927449-11.669784-0.50142-24.557302 8.701173-32.737612l217.547735-193.358823-67.980277-291.298436c-2.848884-12.20702 2.009773-24.919553 12.273535-32.114418 10.264784-7.195889 23.87271-7.42818 34.375925-0.586354l240.624313 156.709111 240.625336-156.709111c5.099135-3.320629 10.92891-4.974291 16.752546-4.974291 6.173606 0 12.342096 1.858324 17.623379 5.561669 10.263761 7.194866 15.122419 19.907399 12.273535 32.114418l-67.980277 291.299459L948.409906 459.781964C957.613522 467.962274 961.037505 480.849792 957.111079 492.519576z"  horiz-adv-x="1024" />
      
      <glyph glyph-name="rate" unicode="&#59003;" d="M959.008 489.984l-308 47.008L512 832 372.992 536.992l-308-47.008 223.008-228-52.992-324L512 90.976l276.992-152.992-52.992 324zM512 156L304 39.00800000000004l40 235.008-179.008 182.016 242.016 32 104.992 224 104-224 240.992-34.016L680 273.024l36.992-235.008z"  horiz-adv-x="1024" />
      
      <glyph glyph-name="cellphone" unicode="&#59000;" d="M785.066667 896H238.933333a102.4 102.4 0 0 1-102.4-102.4v-819.2a102.4 102.4 0 0 1 102.4-102.4h546.133334a102.4 102.4 0 0 1 102.4 102.4V793.6a102.4 102.4 0 0 1-102.4 102.4zM238.933333 827.733333h546.133334a34.133333 34.133333 0 0 0 34.133333-34.133333v-648.533333H204.8V793.6a34.133333 34.133333 0 0 0 34.133333 34.133333z m546.133334-887.466666H238.933333a34.133333 34.133333 0 0 0-34.133333 34.133333v102.4h614.4v-102.4a34.133333 34.133333 0 0 0-34.133333-34.133333zM512 8.53333299999997m-34.133333 0a34.133333 34.133333 0 1 1 68.266666 0 34.133333 34.133333 0 1 1-68.266666 0ZM426.666667 725.333333h170.666666a17.066667 17.066667 0 0 1 0 34.133334h-170.666666a17.066667 17.066667 0 0 1 0-34.133334z"  horiz-adv-x="1024" />
      
      <glyph glyph-name="vercode" unicode="&#59001;" d="M513.807059-128C351.171765-128 58.428235 126.19294100000002 54.211765 376.16941199999997V662.287059a93.364706 93.364706 0 0 0 81.317647 88.545882 570.428235 570.428235 0 0 1 163.237647 40.357647A393.336471 393.336471 0 0 1 446.945882 872.508235a101.797647 101.797647 0 0 0 120.470589 5.421177A629.458824 629.458824 0 0 1 716.8 792.395294a1255.303529 1255.303529 0 0 1 169.863529-38.550588 98.785882 98.785882 0 0 0 79.510589-90.955294 2911.171765 2911.171765 0 0 0-3.011765-291.538824C924.611765 49.09176500000001 672.828235-128 513.807059-128z m0 963.764706a39.152941 39.152941 0 0 1-24.696471-7.830588A438.512941 438.512941 0 0 0 319.247059 734.569412a608.376471 608.376471 0 0 0-180.705883-43.369412 33.731765 33.731765 0 0 1-24.094117-30.117647v-283.708235C118.663529 155.10588199999995 389.722353-67.76470600000005 513.807059-67.76470600000005s354.183529 148.178824 391.529412 444.536471c9.035294 175.887059 0 281.901176 0 283.105882a38.550588 38.550588 0 0 1-29.515295 33.731765 1287.830588 1287.830588 0 0 0-180.705882 41.562353A676.442353 676.442353 0 0 0 536.094118 829.741176a37.345882 37.345882 0 0 1-24.094118 6.02353zM784.865882 479.171765L487.905882 198.47529399999996a40.357647 40.357647 0 0 0-49.392941-4.818823l-7.830588 6.625882-161.430588 171.068235a40.357647 40.357647 0 1 0 60.235294 55.416471l133.722353-141.552941 267.444706 252.988235a40.357647 40.357647 0 1 0 55.41647-60.235294"  horiz-adv-x="1024" />
      
      <glyph glyph-name="login-weibo" unicode="&#58997;" d="M411.270737 288.350316c-17.973895 7.504842-41.189053-0.229053-52.264421-17.542737-11.223579-17.394526-5.955368-38.103579 11.870316-46.201263 18.108632-8.232421 42.132211-0.417684 53.342316 17.421474C435.253895 260.05557899999997 429.446737 280.62989500000003 411.270737 288.350316zM455.545263 306.64757899999995c-6.885053 2.721684-15.508211-0.579368-19.550316-7.329684-3.920842-6.790737-1.751579-14.524632 5.146947-17.367579 7.019789-2.883368 16.006737 0.458105 20.048842 7.370105C465.071158 296.259368 462.551579 304.087579 455.545263 306.64757899999995zM427.52 426.684632c-115.968-11.439158-203.924211-82.216421-196.378947-158.073263 7.531789-75.910737 107.654737-128.161684 223.649684-116.749474 115.994947 11.439158 203.924211 82.216421 196.392421 158.140632C643.664842 385.859368 543.541895 438.110316 427.52 426.684632zM529.300211 247.70021099999997c-23.673263-53.355789-91.769263-81.798737-149.530947-63.232-55.754105 17.933474-79.373474 72.811789-54.945684 122.246737 23.956211 48.464842 86.352842 75.870316 141.541053 61.561263C523.506526 353.562947 552.663579 299.85684200000003 529.300211 247.70021099999997zM512 896C229.241263 896 0 666.772211 0 384c0-282.758737 229.241263-512 512-512 282.772211 0 512 229.241263 512 512C1024 666.772211 794.772211 896 512 896zM455.531789 101.02568399999996c-145.354105 0-293.941895 70.197895-293.941895 185.667368 0 60.362105 38.386526 130.182737 104.474947 196.069053 88.252632 87.929263 191.164632 127.986526 229.874526 89.397895 17.084632-17.003789 18.741895-46.457263 7.760842-81.623579-5.726316-17.690947 16.666947-7.895579 16.666947-7.936 71.343158 29.763368 133.564632 31.514947 156.321684-0.862316 12.139789-17.246316 10.954105-41.472-0.215579-69.510737-5.173895-12.921263 1.589895-14.928842 11.466105-17.879579 40.178526-12.422737 84.924632-42.455579 84.924632-95.380211C772.837053 211.36168399999997 646.090105 101.02568399999996 455.531789 101.02568399999996zM718.672842 468.197053c4.715789 14.457263 1.765053 30.962526-9.202526 43.061895-10.954105 12.072421-27.136 16.666947-42.037895 13.527579l0 0.026947c-12.463158-2.694737-24.724211 5.268211-27.392 17.664-2.667789 12.463158 5.281684 24.697263 17.744842 27.338105 30.531368 6.467368 63.595789-2.937263 85.989053-27.715368 22.447158-24.764632 28.456421-58.489263 18.849684-88.064-3.907368-12.099368-16.936421-18.728421-29.062737-14.848-12.139789 3.920842-18.782316 16.922947-14.874947 28.995368L718.672842 468.183579zM853.261474 424.865684c-0.013474-0.013474-0.013474-0.080842-0.013474-0.107789-4.567579-14.026105-19.712-21.706105-33.778526-17.165474-14.133895 4.554105-21.854316 19.590737-17.300211 33.670737l0 0.013474c13.999158 43.169684 5.12 92.429474-27.567158 128.565895-32.714105 36.122947-80.949895 49.92-125.507368 40.488421-14.484211-3.085474-28.752842 6.130526-31.838316 20.574316-3.098947 14.403368 6.144 28.631579 20.641684 31.717053l0.026947 0c62.625684 13.271579 130.519579-6.117053 176.545684-56.966737C860.483368 554.886737 872.892632 485.618526 853.261474 424.865684z"  horiz-adv-x="1024" />
      
      <glyph glyph-name="login-qq" unicode="&#58998;" d="M512 896C229.227789 896 0 666.772211 0 384c0-282.745263 229.227789-512 512-512s512 229.254737 512 512C1024 666.772211 794.772211 896 512 896L512 896zM738.856421 258.93726300000003c0 0-16.208842-44.220632-45.945263-83.941053 0 0 53.126737-18.054737 48.64-64.983579 0 0 1.778526-52.345263-113.461895-48.734316 0 0-81.071158 6.319158-105.377684 40.609684l-21.423158 0c-24.306526-34.304-105.350737-40.609684-105.350737-40.609684-115.280842-3.610947-113.475368 48.734316-113.475368 48.734316-4.500211 46.928842 48.626526 64.983579 48.626526 64.983579-29.709474 39.720421-45.918316 83.941053-45.918316 83.941053-72.057263-116.439579-64.848842 16.249263-64.848842 16.249263 13.527579 78.524632 70.238316 129.967158 70.238316 129.967158-8.111158 71.316211 21.611789 83.941053 21.611789 83.941053C318.410105 709.712842 508.025263 705.859368 512 705.751579c3.988211 0.107789 193.576421 3.961263 199.828211-216.643368 0 0 29.709474-12.638316 21.611789-83.941053 0 0 56.737684-51.442526 70.238316-129.967158l0 0C803.678316 275.18652599999996 810.873263 142.49768400000005 738.856421 258.93726300000003L738.856421 258.93726300000003zM738.856421 258.93726300000003"  horiz-adv-x="1024" />
      
      <glyph glyph-name="login-wechat" unicode="&#58999;" d="M516.464646 896C233.714646 896 4.464646 666.75 4.464646 384S233.714646-128 516.464646-128s512 229.25 512 512S799.214646 896 516.464646 896z m-74-523.375c-0.25-0.75-0.5-1.125-0.75-1.875-0.25-0.75-0.5-1.125-0.75-1.875-0.25-0.75-0.5-1.125-0.75-1.875-0.25-0.75-0.5-1.125-0.75-1.875-0.25-0.75-0.5-1.125-0.75-1.875-0.25-0.75-0.5-1.125-0.75-1.875-0.25-0.75-0.5-1.125-0.75-1.875-0.25-0.75-0.5-1.125-0.75-1.875-0.25-0.75-0.5-1.125-0.5-1.875-0.25-0.75-0.5-1.125-0.5-1.875-0.25-0.75-0.5-1.125-0.5-1.875-0.25-0.75-0.25-1.125-0.5-1.875s-0.5-1.125-0.5-1.875c-0.25-0.75-0.25-1.125-0.5-1.875s-0.25-1.125-0.5-1.875-0.25-1.125-0.5-1.875-0.25-1.125-0.5-1.875-0.25-1.125-0.5-1.875-0.25-1.125-0.5-1.875-0.25-1.125-0.5-1.875-0.25-1.125-0.5-1.875c0-0.75-0.25-1.125-0.25-1.875s-0.25-1.125-0.25-1.875-0.25-1.125-0.25-1.875-0.25-1.125-0.25-1.875-0.25-1.125-0.25-1.875-0.25-1.125-0.25-1.875-0.25-1.125-0.25-1.875-0.25-1.125-0.25-1.875-0.25-1.125-0.25-1.875 0-1.125-0.25-1.875c0-0.75-0.25-1.125-0.25-1.875s0-1.125-0.25-1.875c0-0.75 0-1.125-0.25-1.875 0-0.75 0-1.125-0.25-1.875v-22.5c0-0.75 0-1.125 0.25-1.875 0-0.75 0-1.125 0.25-1.875 0-0.75 0-1.125 0.25-1.875 0-0.75 0-1.125 0.25-1.875 0-0.75 0.25-1.125 0.25-1.875s0.25-1.125 0.25-1.875 0.25-1.125 0.25-1.875 0.25-1.125 0.25-1.875 0.25-1.125 0.25-1.875 0.25-1.125 0.25-1.875 0.25-1.125 0.25-1.875 0.25-1.125 0.25-1.875 0.25-1.125 0.25-1.875 0.25-1.125 0.5-1.875 0.25-1.125 0.5-1.875 0.25-1.125 0.5-1.875 0.25-1.125 0.5-1.875 0.25-1.125 0.5-1.875 0.25-1.125 0.5-1.875 0.25-1.125 0.5-1.875 0.25-1.125 0.5-1.875 0.25-1.125 0.5-1.875 0.25-1.125 0.5-1.875l0.25-0.875c-4.25-0.25-8.625-0.75-12.75-0.75-3.75-0.25-7.25-0.25-11-0.25-3.5 0-7 0-10.5 0.25-7.25 0.25-14 0.875-20.75 1.875-4.25 0.5-8.125 1.125-12.375 1.875-3.5 0.5-6.75 1.125-10.25 1.875-3 0.5-6.25 1.125-9.25 1.875-3 0.75-5.875 1.125-8.875 1.875-2.75 0.75-5.875 1.125-8.875 1.875-2.75 0.5-5.625 1.125-8.375 1.625l-3.25-1.625-3.75-1.875-4 1.375-3.75-1.875-3.75-1.875-3.75-1.875-3.75-1.875-3.75-1.875-3.75-1.875-3.75-1.875-3.75-1.875-2.75-1.375-3.75-1.875-3.75-1.875-3.75-1.875-3.75-1.875-3.75-1.875-3.75-1.875-3.75-1.875-3.75-1.875-3.75-1.875-3.75-1.875-3.75-1.875-3.75-1.875-2.5-1.375 0.5 1.375 0.75 1.875 0.75 1.875 0.75 1.875 0.75 1.875 0.75 1.875 0.75 1.875 0.75 1.875 0.75 1.875 0.75 1.875 0.75 1.875 0.75 1.875 0.75 1.875 0.75 1.875 0.75 1.875 0.75 1.875 0.75 1.875 0.75 1.875 0.75 1.875 0.75 1.875 0.75 1.875 0.75 1.875 0.75 1.875 0.75 1.875 0.75 1.875 0.75 1.875 0.75 1.875 0.75 1.875 0.75 1.875 0.75 1.875 0.75 1.875 0.75 1.875 0.75 1.875 0.75 1.875 0.75 1.875 0.75 1.875 0.75 1.875 0.75 1.875 0.75 1.875 0.75 1.875 0.75 1.875 0.75 1.875 0.5 1.125c-0.5 0.25-0.75 0.5-1.125 0.75-0.875 0.75-1.625 1.125-2.5 1.875s-1.625 1.125-2.5 1.875-1.625 1.125-2.5 1.875c-0.75 0.75-1.625 1.125-2.375 1.875-0.75 0.75-1.625 1.125-2.375 1.875-0.75 0.75-1.625 1.125-2.375 1.875-0.75 0.75-1.625 1.125-2.375 1.875-0.75 0.75-1.375 1.125-2.375 1.875-0.75 0.75-1.375 1.125-2.125 1.875-0.75 0.75-1.375 1.125-2.125 1.875-0.75 0.75-1.375 1.125-2.125 1.875-0.75 0.75-1.375 1.125-2.125 1.875-0.75 0.75-1.375 1.125-2.125 1.875-0.75 0.75-1.375 1.125-2.125 1.875-0.75 0.75-1.375 1.125-1.875 1.875-0.75 0.75-1.375 1.125-1.875 1.875l-1.875 1.875-1.875 1.875-1.875 1.875-1.875 1.875c-0.75 0.75-1.125 1.125-1.625 1.875s-1.125 1.125-1.625 1.875-1.125 1.125-1.625 1.875-1.125 1.125-1.625 1.875-1.125 1.125-1.625 1.875-1.125 1.125-1.625 1.875-0.875 1.125-1.625 1.875c-0.5 0.75-0.875 1.125-1.625 1.875-0.5 0.75-0.875 1.125-1.375 1.875-0.5 0.75-0.875 1.125-1.375 1.875-0.5 0.75-0.875 1.125-1.375 1.875-0.5 0.75-0.875 1.125-1.375 1.875-0.5 0.75-0.875 1.125-1.375 1.875-0.5 0.75-0.875 1.125-1.375 1.875-0.5 0.75-0.875 1.125-1.375 1.875-0.5 0.75-0.875 1.125-1.375 1.875-0.5 0.75-0.875 1.125-1.125 1.875-0.5 0.75-0.875 1.125-1.125 1.875-0.5 0.75-0.75 1.125-1.125 1.875-0.5 0.75-0.75 1.125-1.125 1.875-0.5 0.75-0.75 1.125-1.125 1.875-0.5 0.75-0.75 1.125-1.125 1.875-0.5 0.75-0.75 1.125-1.125 1.875-0.5 0.75-0.75 1.125-1.125 1.875-0.25 0.75-0.75 1.125-0.875 1.875-0.25 0.75-0.75 1.125-0.875 1.875-0.25 0.75-0.75 1.125-0.875 1.875-0.25 0.75-0.75 1.125-0.875 1.875-0.25 0.75-0.75 1.125-0.875 1.875-0.25 0.75-0.75 1.125-0.875 1.875-0.25 0.75-0.75 1.125-0.875 1.875-0.25 0.75-0.5 1.125-0.875 1.875-0.25 0.75-0.5 1.125-0.875 1.875-0.25 0.75-0.5 1.125-0.875 1.875-0.25 0.75-0.5 1.125-0.75 1.875-0.25 0.75-0.5 1.125-0.75 1.875-0.25 0.75-0.5 1.125-0.75 1.875-0.25 0.75-0.5 1.125-0.75 1.875-0.25 0.75-0.5 1.125-0.75 1.875-0.25 0.75-0.5 1.125-0.75 1.875-0.25 0.75-0.5 1.125-0.75 1.875-0.25 0.75-0.5 1.125-0.75 1.875-0.25 0.75-0.5 1.125-0.75 1.875-0.25 0.75-0.5 1.125-0.75 1.875-0.25 0.75-0.5 1.125-0.5 1.875-0.25 0.75-0.5 1.125-0.5 1.875-0.25 0.75-0.5 1.125-0.5 1.875-0.25 0.75-0.25 1.125-0.5 1.875s-0.25 1.125-0.5 1.875-0.25 1.125-0.5 1.875-0.25 1.125-0.5 1.875-0.25 1.125-0.5 1.875-0.25 1.125-0.5 1.875-0.25 1.125-0.5 1.875-0.25 1.125-0.5 1.875-0.25 1.125-0.25 1.875-0.25 1.125-0.25 1.875-0.25 1.125-0.25 1.875-0.25 1.125-0.25 1.875-0.25 1.125-0.25 1.875-0.25 1.125-0.25 1.875-0.25 1.125-0.25 1.875-0.25 1.125-0.25 1.875-0.25 1.125-0.25 1.875 0 1.125-0.25 1.875c0 0.75 0 1.125-0.25 1.875 0 0.75 0 1.125-0.25 1.875 0 0.75 0 1.125-0.25 1.875V457.25v1.875 1.875 1.875 1.875 1.875 0.875 0.875 1.875 1.875 1.875 1.875 1.875 1.875c0 0.75 0 1.125 0.25 1.875 0 0.75 0 1.125 0.25 1.875 0 0.75 0 1.125 0.25 1.875 0 0.75 0.25 1.125 0.25 1.875s0.25 1.125 0.25 1.875 0.25 1.125 0.25 1.875 0.25 1.125 0.25 1.875 0.25 1.125 0.25 1.875 0.25 1.125 0.25 1.875 0.25 1.125 0.25 1.875 0.25 1.125 0.25 1.875 0.25 1.125 0.25 1.875 0.25 1.125 0.5 1.875c0 0.75 0.25 1.125 0.5 1.875s0.25 1.125 0.5 1.875 0.25 1.125 0.5 1.875 0.25 1.125 0.5 1.875 0.25 1.125 0.5 1.875 0.25 1.125 0.5 1.875 0.25 1.125 0.5 1.875 0.25 1.125 0.5 1.875 0.25 1.125 0.5 1.875 0.25 1.125 0.5 1.875 0.5 1.125 0.5 1.875c0.25 0.75 0.5 1.125 0.5 1.875 0.25 0.75 0.5 1.125 0.5 1.875 0.25 0.75 0.5 1.125 0.75 1.875 0.25 0.75 0.5 1.125 0.75 1.875 0.25 0.75 0.5 1.125 0.75 1.875 0.25 0.75 0.5 1.125 0.75 1.875 0.25 0.75 0.5 1.125 0.75 1.875 0.25 0.75 0.5 1.125 0.75 1.875 0.25 0.75 0.5 1.125 0.75 1.875 0.25 0.75 0.5 1.125 0.75 1.875 0.25 0.75 0.5 1.125 0.75 1.875 0.25 0.75 0.5 1.125 0.75 1.875 0.25 0.75 0.5 1.125 0.75 1.875 0.25 0.75 0.5 1.125 0.875 1.875 0.25 0.75 0.5 1.125 0.875 1.875 0.25 0.75 0.5 1.125 0.875 1.875 0.25 0.75 0.75 1.125 0.875 1.875 0.25 0.75 0.75 1.125 0.875 1.875 0.25 0.75 0.75 1.125 0.875 1.875 0.25 0.75 0.75 1.125 0.875 1.875 0.25 0.75 0.75 1.125 0.875 1.875 0.25 0.75 0.75 1.125 0.875 1.875 0.25 0.75 0.75 1.125 1.125 1.875 0.5 0.75 0.75 1.125 1.125 1.875 0.5 0.75 0.75 1.125 1.125 1.875 0.5 0.75 0.75 1.125 1.125 1.875 0.5 0.75 0.75 1.125 1.125 1.875 0.5 0.75 0.75 1.125 1.125 1.875 0.5 0.75 0.75 1.125 1.125 1.875 0.5 0.75 0.875 1.125 1.125 1.875 0.5 0.75 0.875 1.125 1.125 1.875 0.5 0.75 0.875 1.125 1.125 1.875 0.5 0.75 0.875 1.125 1.375 1.875 0.5 0.75 0.875 1.125 1.375 1.875 0.5 0.75 0.875 1.125 1.375 1.875 0.5 0.75 0.875 1.125 1.375 1.875 0.5 0.75 0.875 1.125 1.375 1.875 0.5 0.75 0.875 1.125 1.375 1.875 0.5 0.75 0.875 1.125 1.375 1.875 0.5 0.75 0.875 1.125 1.625 1.875 0.5 0.75 0.875 1.125 1.625 1.875 0.5 0.75 1.125 1.125 1.625 1.875s1.125 1.125 1.625 1.875 1.125 1.125 1.625 1.875 1.125 1.125 1.625 1.875 1.125 1.125 1.625 1.875l1.875 1.875 1.875 1.875 1.875 1.875 1.875 1.875c0.75 0.75 1.375 1.125 1.875 1.875 0.75 0.75 1.375 1.125 2.125 1.875 0.75 0.75 1.375 1.125 2.125 1.875 0.75 0.75 1.375 1.125 2.125 1.875 0.75 0.75 1.375 1.125 2.125 1.875 0.75 0.75 1.375 1.125 2.125 1.875 0.75 0.75 1.375 1.125 2.375 1.875 0.75 0.75 1.625 1.125 2.375 1.875 0.75 0.75 1.625 1.125 2.375 1.875 0.75 0.75 1.625 1.125 2.375 1.875 0.875 0.75 1.625 1.125 2.5 1.875s1.625 1.125 2.5 1.875 1.875 1.125 2.5 1.875c0.875 0.75 1.875 1.125 2.75 1.875 0.875 0.75 1.875 1.125 2.75 1.875 0.875 0.75 1.875 1.125 2.75 1.875 0.875 0.75 1.875 1.125 3 1.875 0.875 0.75 2.125 1.125 3 1.875s2.125 1.125 3 1.875c1.125 0.75 2.125 1.125 3.25 1.875 1.125 0.75 2.375 1.125 3.25 1.875 1.125 0.75 2.375 1.125 3.5 1.875 1.125 0.75 2.375 1.125 3.75 1.875 1.125 0.75 2.5 1.125 3.75 1.875 1.375 0.75 2.5 1.125 4 1.875 1.375 0.75 2.75 1.125 4.25 1.875 1.375 0.75 2.75 1.125 4.25 1.875 1.375 0.75 3 1.125 4.375 1.875 1.625 0.75 3 1.125 4.625 1.875 1.625 0.75 3.25 1.125 4.875 1.875 1.875 0.75 3.5 1.125 5.375 1.875s3.75 1.125 5.625 1.875c2.125 0.75 4.25 1.125 6 1.875 2.375 0.75 4.375 1.125 6.75 1.875 2.5 0.75 4.875 1.125 7.5 1.875 2.75 0.75 5.625 1.125 8.625 1.875 3.5 0.75 6.75 1.125 10.25 1.875 4.375 0.75 8.875 1.375 13.25 1.875 11 1.125 22.125 1.875 33.25 1.875h2.5c11.125 0 22.375-0.75 33.5-1.875 4.375-0.5 8.875-1.125 13.25-1.875 3.5-0.5 7-1.125 10.25-1.875 2.75-0.5 5.875-1.125 8.625-1.875 2.5-0.5 5.125-1.125 7.625-1.875 2.375-0.5 4.625-1.125 6.75-1.875 2.125-0.5 4.25-1.125 6.25-1.875 1.875-0.75 4-1.125 5.875-1.875s3.75-1.125 5.375-1.875c1.625-0.75 3.5-1.125 5.125-1.875 1.625-0.75 3.25-1.125 4.875-1.875 1.625-0.75 3-1.125 4.625-1.875 1.375-0.75 3-1.125 4.375-1.875s2.75-1.125 4.25-1.875c1.375-0.75 2.75-1.125 4-1.875 1.375-0.75 2.5-1.125 3.75-1.875 1.125-0.75 2.5-1.125 3.75-1.875 1.125-0.75 2.375-1.125 3.5-1.875 1.125-0.75 2.375-1.125 3.5-1.875 1.125-0.75 2.375-1.125 3.25-1.875 1.125-0.75 2.125-1.125 3.25-1.875 1.125-0.75 2.125-1.125 3-1.875s2.125-1.125 3-1.875 1.875-1.125 3-1.875c0.875-0.75 1.875-1.125 2.75-1.875 0.875-0.75 1.875-1.125 2.75-1.875 0.875-0.75 1.875-1.125 2.75-1.875 0.875-0.75 1.875-1.125 2.5-1.875 0.875-0.75 1.625-1.125 2.5-1.875s1.625-1.125 2.5-1.875 1.625-1.125 2.375-1.875c0.75-0.75 1.625-1.125 2.375-1.875 0.75-0.75 1.625-1.125 2.375-1.875 0.75-0.75 1.375-1.125 2.375-1.875 0.75-0.75 1.375-1.125 2.375-1.875 0.75-0.75 1.375-1.125 2.125-1.875 0.75-0.75 1.375-1.125 2.125-1.875 0.75-0.75 1.375-1.125 2.125-1.875 0.75-0.75 1.375-1.125 2.125-1.875 0.75-0.75 1.375-1.125 1.875-1.875 0.75-0.75 1.375-1.125 1.875-1.875l1.875-1.875 1.875-1.875 1.875-1.875 1.875-1.875c0.75-0.75 1.125-1.125 1.625-1.875s1.125-1.125 1.625-1.875 1.125-1.125 1.625-1.875 1.125-1.125 1.625-1.875 1.125-1.125 1.625-1.875 0.875-1.125 1.625-1.875c0.5-0.75 0.875-1.125 1.625-1.875 0.5-0.75 0.875-1.125 1.375-1.875 0.5-0.75 0.875-1.125 1.375-1.875 0.5-0.75 0.875-1.125 1.375-1.875 0.5-0.75 0.875-1.125 1.375-1.875 0.5-0.75 0.875-1.125 1.375-1.875 0.5-0.75 0.875-1.125 1.375-1.875 0.5-0.75 0.875-1.125 1.375-1.875 0.5-0.75 0.875-1.125 1.125-1.875 0.5-0.75 0.875-1.125 1.125-1.875 0.5-0.75 0.875-1.125 1.125-1.875 0.5-0.75 0.75-1.125 1.125-1.875 0.5-0.75 0.75-1.125 1.125-1.875 0.5-0.75 0.75-1.125 1.125-1.875 0.5-0.75 0.75-1.125 1.125-1.875 0.5-0.75 0.75-1.125 1.125-1.875 0.5-0.75 0.75-1.125 1.125-1.875 0.5-0.75 0.75-1.125 0.875-1.875 0.25-0.75 0.75-1.125 0.875-1.875 0.25-0.75 0.75-1.125 0.875-1.875 0.25-0.75 0.75-1.125 0.875-1.875 0.25-0.75 0.75-1.125 0.875-1.875 0.25-0.75 0.75-1.125 0.875-1.875 0.25-0.75 0.75-1.125 0.875-1.875 0.25-0.75 0.75-1.125 0.875-1.875 0.25-0.75 0.5-1.125 0.875-1.875 0.25-0.75 0.5-1.125 0.875-1.875 0.25-0.75 0.5-1.125 0.75-1.875 0.25-0.75 0.5-1.125 0.75-1.875 0.25-0.75 0.5-1.125 0.75-1.875 0.25-0.75 0.5-1.125 0.75-1.875 0.25-0.75 0.5-1.125 0.75-1.875 0.25-0.75 0.5-1.125 0.75-1.875 0.25-0.75 0.5-1.125 0.75-1.875 0.25-0.75 0.5-1.125 0.75-1.875 0.25-0.75 0.5-1.125 0.75-1.875 0.25-0.75 0.5-1.125 0.75-1.875 0.25-0.75 0.5-1.125 0.75-1.875 0.25-0.75 0.5-1.125 0.5-1.875 0.25-0.75 0.5-1.125 0.5-1.875 0.25-0.75 0.25-1.125 0.5-1.875s0.5-1.125 0.5-1.875c0.25-0.75 0.25-1.125 0.5-1.875s0.25-1.125 0.5-1.875 0.25-1.125 0.5-1.875 0.25-1.125 0.5-1.875 0.25-1.125 0.5-1.875c0-0.5 0.25-0.75 0.25-1.125-4.625 0.5-9.25 0.875-14 1.125-3.5 0.25-7 0.25-10.75 0.25-4 0-8.125 0-12.125-0.25-6.75-0.25-13.25-0.875-19.5-1.875-3.75-0.5-7.625-1.125-11.375-1.875-3-0.5-5.875-1.125-8.875-1.875-2.5-0.5-5.125-1.125-7.5-1.875-2.125-0.5-4.375-1.125-6.5-1.875-1.875-0.5-4-1.125-5.875-1.875-1.875-0.5-3.5-1.125-5.375-1.875-1.625-0.75-3.25-1.125-4.875-1.875-1.625-0.75-3-1.125-4.625-1.875-1.375-0.75-3-1.125-4.375-1.875s-2.75-1.125-4.25-1.875c-1.375-0.75-2.5-1.125-4-1.875-1.125-0.75-2.5-1.125-3.75-1.875-1.125-0.75-2.375-1.125-3.5-1.875-1.125-0.75-2.375-1.125-3.5-1.875-1.125-0.75-2.125-1.125-3.25-1.875-0.875-0.75-2.125-1.125-3-1.875s-2.125-1.125-3-1.875-1.875-1.125-3-1.875c-0.875-0.75-1.875-1.125-2.75-1.875-0.875-0.75-1.875-1.125-2.75-1.875-0.875-0.75-1.875-1.125-2.5-1.875-0.875-0.75-1.625-1.125-2.5-1.875s-1.625-1.125-2.5-1.875c-0.75-0.75-1.625-1.125-2.375-1.875-0.75-0.75-1.625-1.125-2.375-1.875-0.75-0.75-1.625-1.125-2.375-1.875-0.75-0.75-1.375-1.125-2.125-1.875-0.75-0.75-1.375-1.125-2.125-1.875-0.75-0.75-1.375-1.125-2.125-1.875-0.75-0.75-1.375-1.125-2.125-1.875-0.75-0.75-1.375-1.125-2.125-1.875-0.75-0.75-1.375-1.125-1.875-1.875l-1.875-1.875-1.875-1.875-1.875-1.875c-0.75-0.75-1.125-1.125-1.625-1.875s-1.125-1.125-1.625-1.875-1.125-1.125-1.625-1.875-1.125-1.125-1.625-1.875-1.125-1.125-1.625-1.875-0.875-1.125-1.625-1.875c-0.5-0.75-0.875-1.125-1.625-1.875-0.5-0.75-0.875-1.125-1.375-1.875-0.5-0.75-0.875-1.125-1.375-1.875-0.5-0.75-0.875-1.125-1.375-1.875-0.5-0.75-0.875-1.125-1.375-1.875-0.5-0.75-0.875-1.125-1.375-1.875-0.5-0.75-0.875-1.125-1.375-1.875-0.5-0.75-0.875-1.125-1.125-1.875-0.5-0.75-0.875-1.125-1.125-1.875-0.5-0.75-0.75-1.125-1.125-1.875-0.5-0.75-0.75-1.125-1.125-1.875-0.5-0.75-0.75-1.125-1.125-1.875-0.5-0.75-0.75-1.125-1.125-1.875-0.5-0.75-0.75-1.125-1.125-1.875-0.5-0.75-0.75-1.125-1.125-1.875-0.5-0.75-0.75-1.125-1.125-1.875-0.25-0.75-0.75-1.125-0.875-1.875-0.25-0.75-0.75-1.125-0.875-1.875-0.25-0.75-0.75-1.125-0.875-1.875-0.25-0.75-0.75-1.125-0.875-1.875-0.25-0.75-0.75-1.125-0.875-1.875-0.25-0.75-0.75-1.125-0.875-1.875-0.25-0.75-0.75-1.125-0.875-1.875-0.25-0.75-0.5-1.125-0.875-1.875-0.25-0.75-0.5-1.125-0.875-1.875-0.25-0.75-0.5-1.125-0.875-1.875-0.25-0.75-0.5-1.125-0.75-1.875-3.125-4.625-3.375-5.125-3.625-5.75z m433.625-71.25v-11.375c0-0.5 0-0.875-0.25-1.625 0-0.5 0-0.875-0.25-1.625 0-0.5 0-0.875-0.25-1.625 0-0.5-0.25-0.875-0.25-1.625 0-0.5-0.25-0.875-0.25-1.625 0-0.5-0.25-0.875-0.25-1.625 0-0.5-0.25-0.875-0.25-1.625 0-0.5-0.25-0.875-0.25-1.625 0-0.5-0.25-0.875-0.25-1.625 0-0.5-0.25-0.875-0.25-1.625 0-0.5-0.25-0.875-0.25-1.625 0-0.5-0.25-0.875-0.25-1.625 0-0.5-0.25-0.875-0.5-1.625-0.25-0.5-0.25-0.875-0.5-1.625-0.25-0.5-0.25-0.875-0.5-1.625-0.25-0.5-0.25-0.875-0.5-1.625-0.25-0.5-0.25-0.875-0.5-1.625-0.25-0.5-0.25-0.875-0.5-1.625-0.25-0.5-0.25-0.875-0.5-1.625-0.25-0.5-0.25-0.875-0.5-1.625-0.25-0.5-0.25-0.875-0.5-1.625-0.25-0.5-0.25-0.875-0.5-1.625-0.25-0.5-0.5-0.875-0.5-1.625-0.25-0.5-0.5-0.875-0.5-1.625-0.25-0.5-0.5-0.875-0.5-1.625-0.25-0.5-0.5-0.875-0.75-1.625-0.25-0.5-0.5-0.875-0.75-1.625-0.25-0.5-0.5-0.875-0.75-1.625-0.25-0.5-0.5-0.875-0.75-1.625-0.25-0.5-0.5-0.875-0.75-1.625-0.25-0.5-0.5-0.875-0.75-1.625-0.25-0.5-0.5-0.875-0.75-1.625-0.25-0.5-0.5-0.875-0.75-1.625-0.25-0.5-0.5-0.875-0.75-1.625-0.25-0.5-0.5-0.875-0.75-1.625-0.25-0.5-0.5-0.875-0.75-1.625-0.25-0.5-0.5-0.875-0.875-1.625-0.25-0.5-0.5-0.875-0.875-1.625-0.25-0.5-0.5-0.875-0.875-1.625-0.25-0.5-0.5-0.875-0.875-1.625-0.25-0.5-0.75-0.875-0.875-1.625-0.25-0.5-0.75-0.875-0.875-1.625-0.25-0.5-0.75-0.875-0.875-1.625-0.25-0.5-0.75-0.875-0.875-1.625-0.25-0.5-0.75-0.875-0.875-1.625-0.25-0.5-0.75-0.875-0.875-1.625-0.25-0.5-0.75-0.875-0.875-1.625-0.25-0.5-0.75-0.875-0.875-1.625-0.5-0.5-0.75-0.875-1.125-1.625-0.5-0.5-0.75-0.875-1.125-1.625-0.5-0.5-0.75-0.875-1.125-1.625-0.5-0.5-0.75-0.875-1.125-1.625-0.5-0.5-0.75-0.875-1.125-1.625-0.5-0.5-0.75-0.875-1.125-1.625-0.5-0.5-0.75-0.875-1.125-1.625-0.5-0.5-0.75-0.875-1.125-1.625-0.5-0.5-0.75-0.875-1.125-1.625-0.5-0.5-0.875-0.875-1.125-1.625-0.5-0.5-0.875-0.875-1.125-1.625-0.5-0.5-0.875-0.875-1.375-1.625-0.5-0.5-0.875-0.875-1.375-1.625-0.5-0.5-0.875-0.875-1.375-1.625-0.5-0.5-0.875-0.875-1.375-1.625-0.5-0.5-0.875-0.875-1.375-1.625-0.5-0.5-0.875-0.875-1.375-1.625-0.5-0.5-0.875-0.875-1.375-1.625-0.5-0.5-0.875-0.875-1.375-1.625-0.5-0.5-0.875-0.875-1.375-1.625-0.5-0.5-0.875-0.875-1.375-1.625l-1.625-1.625-1.625-1.625c-0.5-0.5-1.125-0.875-1.625-1.625-0.5-0.5-1.125-0.875-1.625-1.625-0.5-0.5-1.125-0.875-1.625-1.625-0.5-0.5-1.125-0.875-1.625-1.625-0.5-0.5-1.125-0.875-1.625-1.625-0.5-0.5-1.125-0.875-1.625-1.625-0.5-0.5-1.125-0.875-1.625-1.625-0.75-0.5-1.125-0.875-1.875-1.625-0.75-0.5-1.125-0.875-1.875-1.625-0.75-0.5-1.125-0.875-1.875-1.625-0.75-0.5-1.125-0.875-1.875-1.625-0.75-0.5-1.125-0.875-1.875-1.625-0.75-0.5-1.125-0.875-1.875-1.625-0.75-0.5-1.375-0.875-1.875-1.625-0.75-0.5-1.375-0.875-1.875-1.625-0.75-0.5-1.375-0.875-2.125-1.625-0.75-0.5-1.375-0.875-2.125-1.625l-0.75-0.5 0.25-0.875 0.5-1.625 0.5-1.625 0.5-1.625 0.5-1.625 0.5-1.625 0.5-1.625 0.5-1.625 0.5-1.625 0.5-1.625 0.5-1.625 0.5-1.625 0.5-1.625 0.5-1.625 0.5-1.625 0.5-1.625 0.5-1.625 0.5-1.625 0.5-1.625 0.5-1.625 0.5-1.625 0.5-1.625 0.5-1.625 0.5-1.625 0.5-1.625 0.5-1.625 0.5-1.625 0.5-1.625 0.5-1.625 0.5-1.625 0.5-1.625 0.5-1.625 0.5-1.625 0.5-1.625 0.5-1.625 0.5-1.625 0.5-1.625 0.5-1.625 0.5-1.625 0.5-1.625 0.5-1.625 0.25-1.125-2.125 1.125-2.75 1.625-2.75 1.625-2.75 1.625-2.75 1.625-2.75 1.625-2.75 1.625-2.75 1.625-2.75 1.625-2.75 1.625-2.75 1.625-2.75 1.625-2.75 1.625-2.75 1.625-2.75 1.625-2.75 1.625-2.75 1.625-2.75 1.625-2.75 1.625-2.75 1.625-2.75 1.625-2.75 1.625-2.75 1.625-2.75 1.625-2.75 1.625-0.5 0.25-0.875-0.25c-2.125-0.5-4.25-0.875-6-1.625-2.125-0.5-4.25-0.875-6.25-1.625-2.125-0.5-4.25-0.875-6.5-1.625-2.375-0.5-4.375-0.875-6.75-1.625-2.375-0.5-4.875-1.125-7.25-1.625-2.75-0.5-5.375-1.125-8.125-1.625-3.25-0.5-6.5-1.125-9.75-1.625-5.375-0.75-10.75-1.125-15.875-1.625-2.75-0.25-5.875-0.25-8.625-0.25-3.75 0-7.5 0-11.125 0.25-6.5 0.25-12.75 0.75-19.125 1.625-3.75 0.5-7.5 0.875-11 1.625-2.75 0.5-5.875 0.875-8.625 1.625-2.375 0.5-4.875 0.875-7.25 1.625-2.125 0.5-4.25 0.875-6.25 1.625-1.875 0.5-3.75 0.875-5.625 1.625-1.875 0.5-3.5 0.875-5.125 1.625-1.625 0.5-3.25 0.875-4.875 1.625-1.375 0.5-3 0.875-4.375 1.625-1.375 0.5-2.75 0.875-4.25 1.625-1.375 0.5-2.5 0.875-4 1.625-1.125 0.5-2.5 0.875-3.75 1.625-1.125 0.5-2.375 0.875-3.75 1.625-1.125 0.5-2.375 0.875-3.5 1.625-1.125 0.5-2.125 0.875-3.25 1.625-1.125 0.5-2.125 0.875-3.25 1.625-0.875 0.5-2.125 0.875-3 1.625-0.875 0.5-1.875 0.875-3 1.625-0.875 0.5-1.875 0.875-2.75 1.625-0.875 0.5-1.875 0.875-2.75 1.625-0.875 0.5-1.875 0.875-2.5 1.625-0.875 0.5-1.625 0.875-2.5 1.625-0.875 0.5-1.625 0.875-2.5 1.625-0.75 0.5-1.625 0.875-2.375 1.625-0.75 0.5-1.625 0.875-2.375 1.625-0.75 0.5-1.625 0.875-2.375 1.625-0.75 0.5-1.375 0.875-2.375 1.625-0.75 0.5-1.375 0.875-2.125 1.625-0.75 0.5-1.375 0.875-2.125 1.625-0.75 0.5-1.375 0.875-2.125 1.625-0.75 0.5-1.375 0.875-2.125 1.625-0.75 0.5-1.375 0.875-1.875 1.625-0.75 0.5-1.375 0.875-1.875 1.625-0.75 0.5-1.125 0.875-1.875 1.625-0.75 0.5-1.125 0.875-1.875 1.625-0.75 0.5-1.125 0.875-1.875 1.625-0.75 0.5-1.125 0.875-1.875 1.625-0.5 0.5-1.125 0.875-1.625 1.625-0.5 0.5-1.125 0.875-1.625 1.625-0.5 0.5-1.125 0.875-1.625 1.625-0.5 0.5-1.125 0.875-1.625 1.625l-1.625 1.625-1.625 1.625c-0.5 0.5-0.875 0.875-1.375 1.625-0.5 0.5-0.875 0.875-1.375 1.625-0.5 0.5-0.875 0.875-1.375 1.625-0.5 0.5-0.875 0.875-1.375 1.625-0.5 0.5-0.875 0.875-1.375 1.625-0.5 0.5-0.875 0.875-1.375 1.625-0.5 0.5-0.875 0.875-1.375 1.625-0.5 0.5-0.875 0.875-1.125 1.625-0.5 0.5-0.875 0.875-1.125 1.625-0.5 0.5-0.875 0.875-1.125 1.625-0.5 0.5-0.75 0.875-1.125 1.625-0.5 0.5-0.75 0.875-1.125 1.625-0.5 0.5-0.75 0.875-1.125 1.625-0.5 0.5-0.75 0.875-1.125 1.625-0.5 0.5-0.75 0.875-1.125 1.625-0.5 0.5-0.75 0.875-1.125 1.625-0.5 0.5-0.75 0.875-1.125 1.625-0.25 0.5-0.75 0.875-0.875 1.625-0.25 0.5-0.75 0.875-0.875 1.625-0.25 0.5-0.75 0.875-0.875 1.625-0.25 0.5-0.75 0.875-0.875 1.625-0.25 0.5-0.75 0.875-0.875 1.625-0.25 0.5-0.75 0.875-0.875 1.625-0.25 0.5-0.75 0.875-0.875 1.625-0.25 0.5-0.75 0.875-0.875 1.625-0.25 0.5-0.5 0.875-0.875 1.625-0.25 0.5-0.5 0.875-0.875 1.625-0.25 0.5-0.5 0.875-0.75 1.625-0.25 0.5-0.5 0.875-0.75 1.625-0.25 0.5-0.5 0.875-0.75 1.625-0.25 0.5-0.5 0.875-0.75 1.625-0.25 0.5-0.5 0.875-0.75 1.625-0.25 0.5-0.5 0.875-0.75 1.625-0.25 0.5-0.5 0.875-0.75 1.625-0.25 0.5-0.5 0.875-0.75 1.625-0.25 0.5-0.5 0.875-0.75 1.625-0.25 0.5-0.5 0.875-0.75 1.625-0.25 0.5-0.5 0.875-0.75 1.625-0.25 0.5-0.5 0.875-0.75 1.625-0.25 0.5-0.5 0.875-0.5 1.625-0.25 0.5-0.5 0.875-0.5 1.625-0.25 0.5-0.5 0.875-0.5 1.625-0.25 0.5-0.5 0.875-0.5 1.625-0.25 0.5-0.5 0.875-0.5 1.625-0.25 0.5-0.25 0.875-0.5 1.625-0.25 0.5-0.25 0.875-0.5 1.625-0.25 0.5-0.25 0.875-0.5 1.625-0.25 0.5-0.25 0.875-0.5 1.625-0.25 0.5-0.25 0.875-0.5 1.625-0.25 0.5-0.25 0.875-0.5 1.625-0.25 0.5-0.25 0.875-0.5 1.625-0.25 0.5-0.25 0.875-0.5 1.625-0.25 0.5-0.25 0.875-0.5 1.625-0.25 0.5-0.25 0.875-0.25 1.625 0 0.5-0.25 0.875-0.25 1.625 0 0.5-0.25 0.875-0.25 1.625 0 0.5-0.25 0.875-0.25 1.625 0 0.5-0.25 0.875-0.25 1.625 0 0.5-0.25 0.875-0.25 1.625 0 0.5-0.25 0.875-0.25 1.625 0 0.5-0.25 0.875-0.25 1.625 0 0.5-0.25 0.875-0.25 1.625 0 0.5-0.25 0.875-0.25 1.625 0 0.5-0.25 0.875-0.25 1.625 0 0.5-0.25 0.875-0.25 1.625 0 0.5 0 0.875-0.25 1.625 0 0.5 0 0.875-0.25 1.625 0 0.5 0 0.875-0.25 1.625v1.625 1.625 1.625 3.25 1.625 3.25 1.375 1.625 1.625 1.625 1.625 1.625 1.625 1.625 1.625 1.625c0 0.5 0 0.875 0.25 1.625 0 0.5 0 0.875 0.25 1.625 0 0.5 0 0.875 0.25 1.625 0 0.5 0.25 0.875 0.25 1.625 0 0.5 0.25 0.875 0.25 1.625 0 0.5 0.25 0.875 0.25 1.625 0 0.5 0.25 0.875 0.25 1.625 0 0.5 0.25 0.875 0.25 1.625 0 0.5 0.25 0.875 0.25 1.625 0 0.5 0.25 0.875 0.25 1.625 0 0.5 0.25 0.875 0.25 1.625 0 0.5 0.25 0.875 0.25 1.625 0 0.5 0.25 0.875 0.25 1.625 0 0.5 0.25 0.875 0.25 1.625 0 0.5 0.25 0.875 0.25 1.625 0.25 0.5 0.25 0.875 0.5 1.625 0.25 0.5 0.25 0.875 0.5 1.625 0.25 0.5 0.25 0.875 0.5 1.625 0.25 0.5 0.25 0.875 0.5 1.625 0.25 0.5 0.25 0.875 0.5 1.625 0.25 0.5 0.25 0.875 0.5 1.625 0.25 0.5 0.25 0.875 0.5 1.625 0.25 0.5 0.25 0.875 0.5 1.625 0.25 0.5 0.25 0.875 0.5 1.625 0.25 0.5 0.5 0.875 0.5 1.625 0.25 0.5 0.5 0.875 0.5 1.625 0.25 0.5 0.5 0.875 0.5 1.625 0.25 0.5 0.5 0.875 0.5 1.625 0.25 0.5 0.5 0.875 0.5 1.625 0.25 0.5 0.5 0.875 0.75 1.625 0.25 0.5 0.5 0.875 0.75 1.625 0.25 0.5 0.5 0.875 0.75 1.625 0.25 0.5 0.5 0.875 0.75 1.625 0.25 0.5 0.5 0.875 0.75 1.625 0.25 0.5 0.5 0.875 0.75 1.625 0.25 0.5 0.5 0.875 0.75 1.625 0.25 0.5 0.5 0.875 0.75 1.625 0.25 0.5 0.5 0.875 0.75 1.625 0.25 0.5 0.5 0.875 0.75 1.625 0.25 0.5 0.5 0.875 0.75 1.625 0.25 0.5 0.5 0.875 0.875 1.625 0.25 0.5 0.5 0.875 0.875 1.625 0.25 0.5 0.5 0.875 0.875 1.625 0.25 0.5 0.75 0.875 0.875 1.625 0.25 0.5 0.75 0.875 0.875 1.625 0.25 0.5 0.75 0.875 0.875 1.625 0.25 0.5 0.75 0.875 0.875 1.625 0.25 0.5 0.75 0.875 0.875 1.625 0.25 0.5 0.75 0.875 0.875 1.625 0.25 0.5 0.75 0.875 0.875 1.625 0.25 0.5 0.75 0.875 0.875 1.625 0.25 0.5 0.75 0.875 1.125 1.625 0.5 0.5 0.75 0.875 1.125 1.625 0.5 0.5 0.75 0.875 1.125 1.625 0.5 0.5 0.75 0.875 1.125 1.625 0.5 0.5 0.75 0.875 1.125 1.625 0.5 0.5 0.75 0.875 1.125 1.625 0.5 0.5 0.75 0.875 1.125 1.625 0.5 0.5 0.875 0.875 1.125 1.625 0.5 0.5 0.875 0.875 1.125 1.625 0.5 0.5 0.875 0.875 1.125 1.625 0.5 0.5 0.875 0.875 1.375 1.625 0.5 0.5 0.875 0.875 1.375 1.625 0.5 0.5 0.875 0.875 1.375 1.625 0.5 0.5 0.875 0.875 1.375 1.625 0.5 0.5 0.875 0.875 1.375 1.625 0.5 0.5 0.875 0.875 1.375 1.625 0.5 0.5 0.875 0.875 1.375 1.625l1.625 1.625 1.625 1.625c0.5 0.5 1.125 0.875 1.625 1.625 0.5 0.5 1.125 0.875 1.625 1.625 0.5 0.5 1.125 0.875 1.625 1.625 0.5 0.5 1.125 0.875 1.625 1.625 0.5 0.5 1.125 0.875 1.875 1.625 0.75 0.5 1.125 0.875 1.875 1.625 0.75 0.5 1.125 0.875 1.875 1.625 0.75 0.5 1.125 0.875 1.875 1.625 0.75 0.5 1.375 0.875 1.875 1.625 0.75 0.5 1.375 0.875 1.875 1.625 0.75 0.5 1.375 0.875 2.125 1.625 0.75 0.5 1.375 0.875 2.125 1.625 0.75 0.5 1.375 0.875 2.125 1.625 0.75 0.5 1.375 0.875 2.125 1.625 0.75 0.5 1.375 0.875 2.375 1.625 0.75 0.5 1.625 0.875 2.375 1.625 0.75 0.5 1.625 0.875 2.375 1.625 0.75 0.5 1.625 0.875 2.375 1.625 0.875 0.5 1.625 0.875 2.5 1.625 0.875 0.5 1.625 0.875 2.5 1.625 0.875 0.5 1.875 0.875 2.5 1.625 0.875 0.5 1.875 0.875 2.75 1.625 0.875 0.5 1.875 0.875 2.75 1.625 0.875 0.5 1.875 0.875 3 1.625 0.875 0.5 2.125 0.875 3 1.625 1.125 0.5 2.125 0.875 3.25 1.625 1.125 0.5 2.125 0.875 3.25 1.625 1.125 0.5 2.375 0.875 3.5 1.625 1.125 0.5 2.375 0.875 3.75 1.625 1.125 0.5 2.5 0.875 3.75 1.625 1.375 0.5 2.5 0.875 4 1.625 1.375 0.5 2.75 0.875 4.25 1.625 1.375 0.5 3 0.875 4.375 1.625 1.625 0.5 3.25 0.875 4.875 1.625 1.625 0.5 3.5 0.875 5.125 1.625 1.875 0.5 3.75 0.875 5.875 1.625 2.125 0.5 4.25 1.125 6.25 1.625 2.375 0.5 4.875 1.125 7.25 1.625 2.75 0.5 5.875 1.125 8.625 1.625 3.75 0.75 7.5 1.125 11.125 1.625 9.25 1.125 19.125 1.625 28.875 1.625h1.375c9.25 0 18.375-0.75 27.5-1.625 3.75-0.5 7.25-0.875 10.75-1.625 2.75-0.5 5.625-0.875 8.375-1.625 2.375-0.5 4.625-0.875 7-1.625 2.125-0.5 4.25-0.875 6.25-1.625 1.875-0.5 3.75-0.875 5.625-1.625 1.625-0.5 3.5-0.875 5.125-1.625 1.625-0.5 3.25-0.875 4.625-1.625 1.375-0.5 3-0.875 4.375-1.625 1.375-0.5 2.75-0.875 4.25-1.625 1.375-0.5 2.5-0.875 4-1.625 1.125-0.5 2.5-0.875 3.75-1.625 1.125-0.5 2.375-0.875 3.5-1.625 1.125-0.5 2.375-0.875 3.5-1.625 1.125-0.5 2.125-0.875 3.25-1.625 1.125-0.5 2.125-0.875 3.25-1.625 0.875-0.5 2.125-0.875 3-1.625 0.875-0.5 1.875-0.875 3-1.625 0.875-0.5 1.875-0.875 2.75-1.625 0.875-0.5 1.875-0.875 2.75-1.625 0.875-0.5 1.875-0.875 2.5-1.625 0.875-0.5 1.625-0.875 2.5-1.625 0.875-0.5 1.625-0.875 2.5-1.625 0.875-0.5 1.625-0.875 2.5-1.625 0.75-0.5 1.625-0.875 2.375-1.625 0.75-0.5 1.625-0.875 2.375-1.625 0.75-0.5 1.375-0.875 2.375-1.625 0.75-0.5 1.375-0.875 2.125-1.625 0.75-0.5 1.375-0.875 2.125-1.625 0.75-0.5 1.375-0.875 2.125-1.625 0.75-0.5 1.375-0.875 2.125-1.625 0.75-0.5 1.375-0.875 1.875-1.625 0.75-0.5 1.375-0.875 1.875-1.625 0.75-0.5 1.125-0.875 1.875-1.625 0.75-0.5 1.125-0.875 1.875-1.625 0.75-0.5 1.125-0.875 1.875-1.625 0.75-0.5 1.125-0.875 1.875-1.625 0.5-0.5 1.125-0.875 1.625-1.625 0.5-0.5 1.125-0.875 1.625-1.625 0.5-0.5 1.125-0.875 1.625-1.625 0.5-0.5 1.125-0.875 1.625-1.625 0.5-0.5 1.125-0.875 1.625-1.625l1.625-1.625 1.625-1.625c0.5-0.5 0.875-0.875 1.375-1.625 0.5-0.5 0.875-0.875 1.375-1.625 0.5-0.5 0.875-0.875 1.375-1.625 0.5-0.5 0.875-0.875 1.375-1.625 0.5-0.5 0.875-0.875 1.375-1.625 0.5-0.5 0.875-0.875 1.375-1.625 0.5-0.5 0.875-0.875 1.375-1.625 0.5-0.5 0.875-0.875 1.375-1.625 0.5-0.5 0.875-0.875 1.125-1.625 0.5-0.5 0.75-0.875 1.125-1.625 0.5-0.5 0.875-0.875 1.125-1.625 0.5-0.5 0.75-0.875 1.125-1.625 0.5-0.5 0.75-0.875 1.125-1.625 0.5-0.5 0.75-0.875 1.125-1.625 0.5-0.5 0.75-0.875 1.125-1.625 0.5-0.5 0.75-0.875 1.125-1.625 0.5-0.5 0.75-0.875 1.125-1.625 0.5-0.5 0.75-0.875 0.875-1.625 0.25-0.5 0.75-0.875 0.875-1.625 0.25-0.5 0.75-0.875 0.875-1.625 0.25-0.5 0.75-0.875 0.875-1.625 0.25-0.5 0.75-0.875 0.875-1.625 0.25-0.5 0.75-0.875 0.875-1.625 0.25-0.5 0.75-0.875 0.875-1.625 0.25-0.5 0.5-0.875 0.875-1.625 0.25-0.5 0.75-0.875 0.875-1.625 0.25-0.5 0.5-0.875 0.875-1.625 0.25-0.5 0.5-0.875 0.875-1.625 0.25-0.5 0.5-0.875 0.875-1.625 0.25-0.5 0.5-0.875 0.75-1.625 0.25-0.5 0.5-0.875 0.75-1.625 0.25-0.5 0.5-0.875 0.75-1.625 0.25-0.5 0.5-0.875 0.75-1.625 0.25-0.5 0.5-0.875 0.75-1.625 0.25-0.5 0.5-0.875 0.75-1.625 0.25-0.5 0.5-0.875 0.75-1.625 0.25-0.5 0.5-0.875 0.75-1.625 0.25-0.5 0.5-0.875 0.75-1.625 0.25-0.5 0.5-0.875 0.75-1.625 0.25-0.5 0.5-0.875 0.75-1.625 0.25-0.5 0.5-0.875 0.5-1.625 0.25-0.5 0.5-0.875 0.5-1.625 0.25-0.5 0.5-0.875 0.5-1.625 0.25-0.5 0.25-0.875 0.5-1.625 0.25-0.5 0.25-0.875 0.5-1.625 0.25-0.5 0.25-0.875 0.5-1.625 0.25-0.5 0.25-0.875 0.5-1.625 0.25-0.5 0.25-0.875 0.5-1.625 0.25-0.5 0.25-0.875 0.5-1.625 0.25-0.5 0.25-0.875 0.5-1.625 0.25-0.5 0.25-0.875 0.5-1.625 0.25-0.5 0.25-0.875 0.5-1.625 0.25-0.5 0.25-0.875 0.5-1.625 0.25-0.5 0.25-0.875 0.5-1.625 0.25-0.5 0.25-0.875 0.5-1.625 0-0.5 0.25-0.875 0.25-1.625 0-0.5 0.25-0.875 0.25-1.625 0-0.5 0.25-0.875 0.25-1.625 0-0.5 0.25-0.875 0.25-1.625 0-0.5 0.25-0.875 0.25-1.625 0-0.5 0.25-0.875 0.25-1.625 0-0.5 0.25-0.875 0.25-1.625 0-0.5 0.25-0.875 0.25-1.625 0-0.5 0.25-0.875 0.25-1.625 0-0.5 0-0.875 0.25-1.625 0-0.5 0-0.875 0.25-1.625 0-0.5 0-0.875 0.25-1.625 0-0.5 0-0.875 0.25-1.625 0-0.5 0-0.875 0.25-1.625v-11.375h-3.125zM589.714646 384c-12.625 0-25.375-12.75-25.375-25.375 0-12.75 12.75-25.375 25.375-25.375 19.375 0 31.875 12.625 31.875 25.375-0.125 12.625-12.75 25.375-31.875 25.375zM729.589646 384c-12.625 0-25.375-12.75-25.375-25.375 0-12.75 12.75-25.375 25.375-25.375 19.125 0 31.875 12.625 31.875 25.375 0 12.625-12.75 25.375-31.875 25.375zM328.714646 568.75c-19.125 0-38.375-12.625-38.375-31.625 0-19.125 19.375-31.875 38.375-31.875s31.875 12.75 31.875 31.875-12.875 31.625-31.875 31.625zM506.964646 568.75c-19.125 0-38.125-12.625-38.125-31.625 0-19.125 19.125-31.875 38.125-31.875 19.125 0 31.875 12.75 31.875 31.875s-12.875 31.625-31.875 31.625z"  horiz-adv-x="1059" />
      
      <glyph glyph-name="username" unicode="&#58991;" d="M514.594 824.888c-144.11 0-260.979-118.46-260.979-264.558 0-88.783 43.497-166.928 109.711-214.898-135.361-59.354-230.159-195.858-230.159-354.931h0.894c1.541-21.375 18.641-38.377 40.117-38.377s38.575 17.051 40.117 38.377h0.645c0 0.944-0.099 1.79-0.099 2.734 0 0.05 0 0.099 0 0.149 0 0.099-0.05 0.149-0.05 0.199 0.05 159.967 120 291.054 273.009 304.924 8.948-0.944 17.598-2.734 26.844-2.734 144.11 0 260.979 118.46 260.979 264.558s-116.919 264.558-261.029 264.558zM514.594 377.54499999999996c-99.769 0-180.698 81.972-180.698 183.183s80.879 183.183 180.698 183.183c99.719 0 180.647-81.972 180.647-183.183s-80.879-183.183-180.647-183.183zM896.021-6.615000000000009c0 0.348-0.199 0.645-0.199 0.994-1.043 105.038-43.397 200.034-111.35 269.131v0c-7.157 7.357-17.001 11.98-27.986 11.98-21.574 0-39.122-17.747-39.122-39.668 0-11.135 4.573-21.127 11.83-28.334l-0.099-0.05c52.742-55.229 85.302-130.589 85.302-213.853 0-1.043-0.149-1.987-0.149-3.034h0.994c1.491-21.375 18.691-38.377 40.117-38.377 21.475 0 38.575 17.051 40.117 38.377h0.597c0 0.796-0.099 1.491-0.099 2.287-0.05 0.149 0.05 0.348 0.05 0.547z"  horiz-adv-x="1024" />
      
      <glyph glyph-name="password" unicode="&#58995;" d="M519.2 343.29999999999995c-41.1 0-74.4-33.3-74.4-74.4 0-29.7 17.5-55 42.5-67.1v-81.9c0-17.6 14.3-31.9 31.9-31.9 17.6 0 31.9 14.3 31.9 31.9v81.9c25.1 12 42.5 37.4 42.5 66.9 0 41.3-33.2 74.6-74.4 74.6zM827.6-62.10000000000002H189.4c-35.9 0-65.1 29.2-65.1 65.1V428.4c0 35.9 29.2 65.1 65.1 65.1h638.2c17.3 0 33.7-6.7 46-19.1 12.3-12.3 19.1-28.7 19.1-46V3c0-35.9-29.2-65.1-65.1-65.1zM231.9 427.2c-34.8 0-41.3-6.6-41.3-41.3v-340.4c0-34.8 6.6-41.3 41.3-41.3h553.2c34.8 0 41.3 6.6 41.3 41.3V385.9c0 34.8-6.6 41.3-41.3 41.3H231.9zM519.2 86.70000000000005c-18.3 0-33.2 14.8-33.2 33.2V201c-26.3 12.8-42.6 38.8-42.6 67.8 0 41.8 33.9 75.7 75.7 75.7s75.7-33.9 75.7-75.7c0-29-16.3-55-42.5-67.8v-81.1c0.1-18.2-14.9-33.2-33.1-33.2zM519.2 342c-40.4 0-73.2-32.9-73.2-73.2 0-28.3 16.1-53.6 41.9-65.8l0.7-0.4V120c0-17 13.7-30.7 30.7-30.7S550 103.10000000000002 550 120v82.6l0.7 0.4c25.8 12.3 41.9 37.5 41.9 65.8-0.2 40.4-33.1 73.2-73.4 73.2zM207 523.1c-9.1 0-17.6 3.5-23.9 10-6.4 6.4-10 15-10 23.9v2h-0.2l0.2 1.4c0.1 0.5 0.1 0.9 0.2 1.4l0.2 1c0.1 0.6 0.2 1.4 0.4 2 15.3 75.7 57 144.2 117.2 193 29.9 24.2 63.4 43 99.8 56 37.5 13.3 77 20.2 117.5 20.2 61 0 120.8-16.3 173-47.2 50.6-29.9 93-72.8 122.5-123.8 4-5.6 6.1-12.2 6.1-19.2 0-18.3-15-33.3-33.3-33.3-13.2 0-25.1 7.7-30.4 19.8-49.2 84.6-140.4 137.4-238 137.4-128.1 0-238.2-87.1-267.6-211.8v-0.2c-0.7-18.4-15.4-32.6-33.7-32.6z"  horiz-adv-x="1024" />
      
      <glyph glyph-name="refresh-3" unicode="&#59818;" d="M820.376904 697.14807C740.637816 774.519228 631.884926 822.157201 511.999488 822.157201c-244.621347 0-442.925808-198.305485-442.925808-442.926832 0-244.6193 198.304462-442.925808 442.925808-442.925808 206.075449 0 379.271046 140.739395 428.740738 331.337337L822.859445 267.64189899999997c-45.759183-127.45381-167.656441-218.623229-310.859957-218.623229-182.371584 0-330.210677 147.842163-330.210677 330.210677 0 182.371584 147.840116 330.2117 330.210677 330.2117 88.762603 0 169.32443-35.035958 228.655723-92.015693L557.051567 433.822732l280.641725 0 113.880677 0 3.351328 0L954.925297 831.695438 820.376904 697.14807z"  horiz-adv-x="1024" />
      
      <glyph glyph-name="auz" unicode="&#58994;" d="M324.266667 435.2c-17.066667 17.066667-39.822222 17.066667-51.2 0-17.066667-17.066667-17.066667-39.822222 0-51.2l153.6-159.288889c5.688889-5.688889 17.066667-11.377778 28.444444-11.377778s17.066667 5.688889 28.444445 11.377778l295.822222 290.133333c17.066667 17.066667 17.066667 39.822222 0 51.2-17.066667 17.066667-39.822222 17.066667-51.2 0L455.111111 304.355556 324.266667 435.2zM927.288889 753.777778L523.377778 896h-22.755556L96.711111 753.777778c-17.066667-5.688889-28.444444-17.066667-28.444444-34.133334v-432.355555c11.377778-250.311111 409.6-409.6 426.666666-415.288889h22.755556c17.066667 5.688889 415.288889 159.288889 426.666667 415.288889V719.644444c11.377778 17.066667 0 28.444444-17.066667 34.133334z m-45.511111-460.8c-5.688889-182.044444-301.511111-312.888889-369.777778-341.333334-113.777778 45.511111-358.4 182.044444-369.777778 341.333334v398.222222L512 822.044444l369.777778-125.155555v-403.911111z"  horiz-adv-x="1024" />
      
      <glyph glyph-name="shrink-right" unicode="&#58984;" d="M52.294-28.71900000000005h899.793c16.546 0 29.999 13.405 29.999 29.999v59.974c-0.013 16.562-13.436 29.985-29.998 29.999h-899.795c-16.57 0-29.999-13.429-29.999-29.999v-59.974c0-16.617 13.429-29.999 29.999-29.999zM952.087 451.165h-479.884c-16.57 0-29.999-13.405-29.999-29.999v-59.974c0 0 0 0 0 0 0-16.572 13.428-30.01 29.997-30.022h479.885c16.571 0.013 29.999 13.448 29.999 30.022 0 0 0 0 0 0v59.974c0 16.593-13.429 29.999-29.999 29.999zM52.294 691.0840000000001h899.793c16.554 0.013 29.972 13.423 29.999 29.974v59.999c0 16.57-13.429 29.999-29.999 29.999h-899.793c-16.57 0-29.999-13.429-29.999-29.999v-59.997c0-16.546 13.429-29.975 29.999-29.975zM45.183 383.53499999999997l239.919-150.598v301.196l-239.919-150.598z"  horiz-adv-x="1024" />
      
      <glyph glyph-name="spread-left" unicode="&#58987;" d="M942.974 770.924h-843.556c-15.513 0-28.124-12.567-28.124-28.124v-56.226c0.012-15.527 12.596-28.111 28.123-28.124h843.559c15.534 0 28.124 12.59 28.124 28.124v56.226c0 15.578-12.59 28.124-28.124 28.124zM99.418 321.033h449.891c15.534 0 28.124 12.567 28.124 28.124v56.226c0 0 0 0 0 0 0 15.537-12.589 28.134-28.122 28.146h-449.892c-15.534-0.012-28.124-12.608-28.124-28.146 0 0 0 0 0 0v-56.226c0-15.556 12.59-28.124 28.124-28.124zM942.974 96.10900000000004h-843.556c-15.519-0.012-28.099-12.584-28.124-28.101v-56.249c0-15.534 12.59-28.124 28.124-28.124h843.556c15.534 0 28.124 12.59 28.124 28.124v56.248c0 15.513-12.59 28.103-28.124 28.102zM949.641 384.436l-224.924 141.186v-282.37l224.924 141.186z"  horiz-adv-x="1024" />
      
      <glyph glyph-name="snowflake" unicode="&#59057;" d="M480.695-64h63.725V59.291000000000054l68.854-68.242 44.945 44.546-113.798 112.79v180.02l177.271-102.44 41.67-155.652 60.725 16.284-25.398 94.872 85.259-49.266 31.87 55.246-84.726 48.961 94.497 25.343-16.495 61.622-156.068-41.855-176.934 102.245 177.667 102.667 155.513-41.709 16.274 60.793-94.78 25.418 85.255 49.264-31.869 55.247-84.733-48.965 25.326 94.594-61.557 16.51-41.817-156.206-176.948-102.251V644.461l113.849 113.951-44.459 44.496-69.392-69.454V832h-63.725v-97.935l-69.188 69.249-45.068-45.107 114.256-114.355V438.89l-156.557 90.469L283.45 684.39l-60.188-16.458 24.84-94.632-107.544 62.145-31.868-55.247 106.667-61.639-93.463-25.557 16.074-61.237 154.482 42.243 156.169-90.243-156.138-90.226-154.485 42.243-15.855-60.409 94.289-25.784-107.534-62.14 31.868-55.247 106.672 61.642-24.621-93.801 61.012-16.685 40.69 155.028 156.179 90.25v-180.455l-113.801-112.79 44.338-43.944 69.463 68.845V-64z"  horiz-adv-x="1024" />
      
      <glyph glyph-name="tips" unicode="&#59138;" d="M967.280184 578.537671c-24.915459 58.887178-60.544935 111.76755-105.96745 157.161413-45.393863 45.393863-98.273211 81.051991-157.160389 105.96745-60.988026 25.803689-125.735679 38.853913-192.494129 38.853913-66.729797 0-131.504056-13.0799-192.494129-38.853913-58.887178-24.916483-111.766526-60.544935-157.160389-105.96745-45.393863-45.393863-81.051991-98.274234-105.96745-157.161413-25.803689-60.988026-38.884612-125.734656-38.884612-192.464453s13.0799-131.50508 38.884612-192.464453c24.915459-58.887178 60.544935-111.737874 105.96745-157.161413 45.393863-45.393863 98.273211-81.051991 157.160389-105.96745 60.988026-25.803689 125.735679-38.853913 192.494129-38.853913 66.729797 0 131.504056 13.0799 192.494129 38.853913 58.887178 24.916483 111.766526 60.544935 157.160389 105.96745 45.393863 45.393863 81.051991 98.274234 105.96745 157.161413 25.803689 60.988026 38.853913 125.734656 38.853913 192.464453S993.084896 517.549645 967.280184 578.537671zM511.687892-55.138552000000004c-243.302305 0-441.241446 197.909465-441.241446 441.21177S268.385587 827.284989 511.687892 827.284989c243.273652-0.029676 441.210747-197.938118 441.210747-441.21177S754.990197-55.138552000000004 511.687892-55.138552000000004zM511.657192 573.565427m-45.511543 0a44.475 44.475 0 1 1 91.023086 0 44.475 44.475 0 1 1-91.023086 0ZM542.729885 184.14011300000004c0-17.162892-13.906731-31.071669-31.070646-31.071669l0 0c-17.163915 0-31.070646 13.907755-31.070646 31.071669L480.588593 426.998303c0 17.162892 13.906731 31.071669 31.070646 31.071669l0 0c17.163915 0 31.070646-13.907755 31.070646-31.071669L542.729885 184.14011300000004z"  horiz-adv-x="1024" />
      
      <glyph glyph-name="note" unicode="&#58990;" d="M987.2 384.36L512.43 859.13a84.75 84.75 0 0 1-65 24.71L111.55 864.09a84.83 84.83 0 0 1-79.65-79.65L12.15 448.57a84.57 84.57 0 0 1 24.69-65l474.8-474.8a84.91 84.91 0 0 1 119.93 0L987.2 264.41999999999996a84.9 84.9 0 0 1 0 119.94z m-39.28-80.66L592.29-51.91999999999996a29.31 29.31 0 0 0-41.37 0L76.1 422.9a29.22 29.22 0 0 0-8.49 22.38l19.74 335.88a29.29 29.29 0 0 0 27.48 27.48l335.9 19.75a29.32 29.32 0 0 0 22.38-8.52l474.8-474.8a29.31 29.31 0 0 0 0.01-41.37zM236.86 659.14c-50.92-50.95-50.92-133.8 0-184.72a130.61 130.61 0 1 1 184.71 184.72c-50.89 50.86-133.77 50.86-184.71 0zM382.29 513.7c-28.38-28.38-77.78-28.38-106.15 0a75.08 75.08 0 1 0 106.15 0z"  horiz-adv-x="1024" />
      
      <glyph glyph-name="senior" unicode="&#58996;" d="M719.9 292.06666666L514.7 422.16666666V527.76666666C615.6 461.66666666 731.5 386.66666666 731.5 386.66666666s139.2-45.6 139.2 106.5c0 93-172.5 112.1-197.2 11.8l-69.6 47.3s24.2 101.5 162.4 106.5c138.2 4.9 192-94.6 190.9-199.6-1.2-104.7-136-198.3-237.3-167.1zM561 456.66666666c-4-19-23-33.7-47.6-33.7l-6.9 4.3-217.3 137.8S171 597.86666666 160.8 481.66666666c-10.2-116.1 147.4-129.5 186.8-23.8l81.7-47.6s-65.1-119.1-198.5-119.1C97.3 291.16666666000003 0.6 466.46666666 114 588.96666666c113.5 122.4 218.6 64.6 257 35.7 16.4-12.4 85.3-57.9 158.6-105.9l3.1-2.4c28.3-18.2 33.4-35.6 28.3-59.7zM434.1 192.36666665999996h212c16.7 0 30.3-13.6 30.3-30.3v-15.1c0-16.7-13.6-30.3-30.3-30.3h-212c-16.7 0-30.3 13.6-30.3 30.3v15.1c0 16.8 13.6 30.3 30.3 30.3z"  horiz-adv-x="1024" />
      
      <glyph glyph-name="refresh-1" unicode="&#58982;" d="M688.146 736l-192 128v-256l192 128.001zM496.146 767.7090000000001c-231.174-8.416-416-198.479-416-431.709 0-238.587 193.413-432 432-432 233.23 0 423.293 184.826 431.709 416h-64.05c-8.377-195.817-169.778-352-367.658-352-203.241 0-368 164.759-368 368 0 197.88 156.183 359.282 352 367.658v64.051z"  horiz-adv-x="1024" />
      
      <glyph glyph-name="refresh" unicode="&#58985;" d="M928 810.666667c-18.133333 0-32-13.866667-32-32v-164.266667C816 747.733333 669.866667 832 512 832 264.533333 832 64 631.4666669999999 64 384s200.533333-448 448-448c230.4 0 422.4 172.8 445.866667 402.133333 2.133333 17.066667-10.666667 33.066667-28.8 35.2-17.066667 2.133333-33.066667-10.666667-35.2-28.8C873.6 148.26666699999998 709.333333 0 512 0c-212.266667 0-384 171.733333-384 384s171.733333 384 384 384c137.6 0 264.533333-74.666667 332.8-192H693.333333c-18.133333 0-32-13.866667-32-32s13.866667-32 32-32h266.666667V778.666667c0 18.133333-14.933333 32-32 32z"  horiz-adv-x="1024" />
      
      <glyph glyph-name="flag" unicode="&#58988;" d="M878.368178 798.272211c-11.363815 4.799306-24.470321 2.360767-33.31578-6.245238-0.36532-0.350994-37.162388-35.304064-95.163383-56.05262-75.462692-26.993794-150.763702-18.409279-223.812415 25.517163-38.347376 23.060205-81.875752 40.665165-129.376603 52.327786-37.582967 9.228175-77.742619 14.777565-119.363552 16.496719-70.805626 2.925632-121.493052-6.224772-123.615389-6.615675-14.56574-2.682086-25.140587-15.380292-25.140587-30.191626L128.58047-31.312913999999978c0-16.954137 13.745049-30.699186 30.699186-30.699186s30.699186 13.745049 30.699186 30.699186L189.978842 266.68306099999995c15.562441 5.250584 47.994084 14.447037 91.40171 17.48728 35.985586 2.51938 72.440869 0.378623 108.35073-6.363941 44.847417-8.420787 89.059362-24.102954 131.409912-46.611597 46.26879-24.591071 93.776803-41.069371 141.203976-48.977481 38.270629-6.380314 76.541257-7.219425 113.740484-2.491751 64.277956 8.16803 103.877859 30.461779 105.532545 31.406291 9.56689 5.464455 15.471366 15.637142 15.471366 26.656103L897.089565 769.958352C897.091612 782.298402 889.73711 793.470859 878.368178 798.272211zM835.69324 257.496841c-14.58416-5.755074-38.82526-13.530155-70.319555-17.225313-30.990828-3.635807-62.940494-2.676969-94.952582 2.851954-40.201607 6.943133-80.731696 21.171182-120.464629 42.289152-48.455595 25.753547-99.208513 43.61945-150.848637 53.101405-29.29214 5.378497-58.896388 8.079002-88.407516 8.079002-12.228509 0-24.443715-0.464581-36.609803-1.39272-34.879392-2.663666-63.618946-8.741082-84.111676-14.355963L189.978842 766.569162c19.971867 2.003634 50.446949 3.910053 86.392626 2.334161 58.186214-2.554172 143.250588-15.041578 218.064504-60.029188 61.32674-36.877909 119.196753-49.491181 169.691797-49.488111 42.293245 0.002047 79.416747 8.854669 109.019972 19.711947 24.269753 8.901741 45.327348 19.747763 62.544475 30.179346L835.692217 257.496841z"  horiz-adv-x="1024" />
      
      </font>
</defs>
</svg>
